  0
SECTION
  2
HEADER
  9
$ACADVER
  1
AC1027
  9
$ACADMAINTVER
 70
   125
  9
$DWGCODEPAGE
  3
ANSI_1252
  9
$LASTSAVEDBY
  1
zoey
  9
$REQUIREDVERSIONS
160
                 0
  9
$INSBASE
 10
0.0
 20
0.0
 30
0.0
  9
$EXTMIN
 10
133.2448984936054
 20
90.56099313588129
 30
-0.0015258207003583
  9
$EXTMAX
 10
1391.593140191199
 20
934.233627025956
 30
0.0000000349246037
  9
$LIMMIN
 10
0.0
 20
0.0
  9
$LIMMAX
 10
12.0
 20
9.0
  9
$ORTHOMODE
 70
     1
  9
$REGENMODE
 70
     1
  9
$FILLMODE
 70
     1
  9
$QTEXTMODE
 70
     0
  9
$MIRRTEXT
 70
     1
  9
$LTSCALE
 40
1.0
  9
$ATTMODE
 70
     1
  9
$TEXTSIZE
 40
0.2
  9
$TRACEWID
 40
0.05
  9
$TEXTSTYLE
  7
Standard
  9
$CLAYER
  8
0
  9
$CELTYPE
  6
ByLayer
  9
$CECOLOR
 62
   256
  9
$CELTSCALE
 40
1.0
  9
$DISPSILH
 70
     0
  9
$DIMSCALE
 40
1.0
  9
$DIMASZ
 40
0.18
  9
$DIMEXO
 40
0.0625
  9
$DIMDLI
 40
0.38
  9
$DIMRND
 40
0.0
  9
$DIMDLE
 40
0.0
  9
$DIMEXE
 40
0.18
  9
$DIMTP
 40
0.0
  9
$DIMTM
 40
0.0
  9
$DIMTXT
 40
0.18
  9
$DIMCEN
 40
0.09
  9
$DIMTSZ
 40
0.0
  9
$DIMTOL
 70
     0
  9
$DIMLIM
 70
     0
  9
$DIMTIH
 70
     1
  9
$DIMTOH
 70
     1
  9
$DIMSE1
 70
     0
  9
$DIMSE2
 70
     0
  9
$DIMTAD
 70
     0
  9
$DIMZIN
 70
     0
  9
$DIMBLK
  1

  9
$DIMASO
 70
     1
  9
$DIMSHO
 70
     1
  9
$DIMPOST
  1

  9
$DIMAPOST
  1

  9
$DIMALT
 70
     0
  9
$DIMALTD
 70
     2
  9
$DIMALTF
 40
25.4
  9
$DIMLFAC
 40
1.0
  9
$DIMTOFL
 70
     0
  9
$DIMTVP
 40
0.0
  9
$DIMTIX
 70
     0
  9
$DIMSOXD
 70
     0
  9
$DIMSAH
 70
     0
  9
$DIMBLK1
  1

  9
$DIMBLK2
  1

  9
$DIMSTYLE
  2
Standard
  9
$DIMCLRD
 70
     0
  9
$DIMCLRE
 70
     0
  9
$DIMCLRT
 70
     0
  9
$DIMTFAC
 40
1.0
  9
$DIMGAP
 40
0.09
  9
$DIMJUST
 70
     0
  9
$DIMSD1
 70
     0
  9
$DIMSD2
 70
     0
  9
$DIMTOLJ
 70
     1
  9
$DIMTZIN
 70
     0
  9
$DIMALTZ
 70
     0
  9
$DIMALTTZ
 70
     0
  9
$DIMUPT
 70
     0
  9
$DIMDEC
 70
     4
  9
$DIMTDEC
 70
     4
  9
$DIMALTU
 70
     2
  9
$DIMALTTD
 70
     2
  9
$DIMTXSTY
  7
Standard
  9
$DIMAUNIT
 70
     0
  9
$DIMADEC
 70
     0
  9
$DIMALTRND
 40
0.0
  9
$DIMAZIN
 70
     0
  9
$DIMDSEP
 70
    46
  9
$DIMATFIT
 70
     3
  9
$DIMFRAC
 70
     0
  9
$DIMLDRBLK
  1

  9
$DIMLUNIT
 70
     2
  9
$DIMLWD
 70
    -2
  9
$DIMLWE
 70
    -2
  9
$DIMTMOVE
 70
     0
  9
$DIMFXL
 40
1.0
  9
$DIMFXLON
 70
     0
  9
$DIMJOGANG
 40
0.7853981633974483
  9
$DIMTFILL
 70
     0
  9
$DIMTFILLCLR
 70
     0
  9
$DIMARCSYM
 70
     0
  9
$DIMLTYPE
  6

  9
$DIMLTEX1
  6

  9
$DIMLTEX2
  6

  9
$DIMTXTDIRECTION
 70
     0
  9
$LUNITS
 70
     2
  9
$LUPREC
 70
     4
  9
$SKETCHINC
 40
0.1
  9
$FILLETRAD
 40
0.0
  9
$AUNITS
 70
     0
  9
$AUPREC
 70
     0
  9
$MENU
  1
.
  9
$ELEVATION
 40
0.0
  9
$PELEVATION
 40
0.0
  9
$THICKNESS
 40
0.0
  9
$LIMCHECK
 70
     0
  9
$CHAMFERA
 40
0.5
  9
$CHAMFERB
 40
0.5
  9
$CHAMFERC
 40
1.0
  9
$CHAMFERD
 40
0.0
  9
$SKPOLY
 70
     0
  9
$TDCREATE
 40
2455841.106793982
  9
$TDUCREATE
 40
2455841.273466887
  9
$TDUPDATE
 40
2458962.601562500
  9
$TDUUPDATE
 40
2458962.768229167
  9
$TDINDWG
 40
0.0658958102
  9
$TDUSRTIMER
 40
0.0658958102
  9
$USRTIMER
 70
     1
  9
$ANGBASE
 50
0.0
  9
$ANGDIR
 70
     0
  9
$PDMODE
 70
     0
  9
$PDSIZE
 40
0.0
  9
$PLINEWID
 40
0.0
  9
$SPLFRAME
 70
     0
  9
$SPLINETYPE
 70
     6
  9
$SPLINESEGS
 70
     8
  9
$HANDSEED
  5
4190
  9
$SURFTAB1
 70
     6
  9
$SURFTAB2
 70
     6
  9
$SURFTYPE
 70
     6
  9
$SURFU
 70
     6
  9
$SURFV
 70
     6
  9
$UCSBASE
  2

  9
$UCSNAME
  2

  9
$UCSORG
 10
0.0
 20
0.0
 30
0.0
  9
$UCSXDIR
 10
1.0
 20
0.0
 30
0.0
  9
$UCSYDIR
 10
0.0
 20
1.0
 30
0.0
  9
$UCSORTHOREF
  2

  9
$UCSORTHOVIEW
 70
     0
  9
$UCSORGTOP
 10
0.0
 20
0.0
 30
0.0
  9
$UCSORGBOTTOM
 10
0.0
 20
0.0
 30
0.0
  9
$UCSORGLEFT
 10
0.0
 20
0.0
 30
0.0
  9
$UCSORGRIGHT
 10
0.0
 20
0.0
 30
0.0
  9
$UCSORGFRONT
 10
0.0
 20
0.0
 30
0.0
  9
$UCSORGBACK
 10
0.0
 20
0.0
 30
0.0
  9
$PUCSBASE
  2

  9
$PUCSNAME
  2

  9
$PUCSORG
 10
0.0
 20
0.0
 30
0.0
  9
$PUCSXDIR
 10
1.0
 20
0.0
 30
0.0
  9
$PUCSYDIR
 10
0.0
 20
1.0
 30
0.0
  9
$PUCSORTHOREF
  2

  9
$PUCSORTHOVIEW
 70
     0
  9
$PUCSORGTOP
 10
0.0
 20
0.0
 30
0.0
  9
$PUCSORGBOTTOM
 10
0.0
 20
0.0
 30
0.0
  9
$PUCSORGLEFT
 10
0.0
 20
0.0
 30
0.0
  9
$PUCSORGRIGHT
 10
0.0
 20
0.0
 30
0.0
  9
$PUCSORGFRONT
 10
0.0
 20
0.0
 30
0.0
  9
$PUCSORGBACK
 10
0.0
 20
0.0
 30
0.0
  9
$USERI1
 70
     0
  9
$USERI2
 70
     0
  9
$USERI3
 70
     0
  9
$USERI4
 70
     0
  9
$USERI5
 70
     0
  9
$USERR1
 40
0.0
  9
$USERR2
 40
0.0
  9
$USERR3
 40
0.0
  9
$USERR4
 40
0.0
  9
$USERR5
 40
0.0
  9
$WORLDVIEW
 70
     1
  9
$SHADEDGE
 70
     3
  9
$SHADEDIF
 70
    70
  9
$TILEMODE
 70
     1
  9
$MAXACTVP
 70
    64
  9
$PINSBASE
 10
0.0
 20
0.0
 30
0.0
  9
$PLIMCHECK
 70
     0
  9
$PEXTMIN
 10
1.000000000000000E+20
 20
1.000000000000000E+20
 30
1.000000000000000E+20
  9
$PEXTMAX
 10
-1.000000000000000E+20
 20
-1.000000000000000E+20
 30
-1.000000000000000E+20
  9
$PLIMMIN
 10
0.0
 20
0.0
  9
$PLIMMAX
 10
12.0
 20
9.0
  9
$UNITMODE
 70
     0
  9
$VISRETAIN
 70
     1
  9
$PLINEGEN
 70
     0
  9
$PSLTSCALE
 70
     1
  9
$TREEDEPTH
 70
  3020
  9
$CMLSTYLE
  2
Standard
  9
$CMLJUST
 70
     0
  9
$CMLSCALE
 40
1.0
  9
$PROXYGRAPHICS
 70
     1
  9
$MEASUREMENT
 70
     0
  9
$CELWEIGHT
370
    -1
  9
$ENDCAPS
280
     0
  9
$JOINSTYLE
280
     0
  9
$LWDISPLAY
290
     0
  9
$INSUNITS
 70
     1
  9
$HYPERLINKBASE
  1

  9
$STYLESHEET
  1
MONOCHROME.CTB
  9
$XEDIT
290
     1
  9
$CEPSNTYPE
380
     0
  9
$PSTYLEMODE
290
     1
  9
$FINGERPRINTGUID
  2
{168A8766-4015-4ABD-915A-AD1ECBE2E3C2}
  9
$VERSIONGUID
  2
{6B7DCEE4-94C3-1B45-A58E-E88A13122FBF}
  9
$EXTNAMES
290
     1
  9
$PSVPSCALE
 40
0.0
  9
$OLESTARTUP
290
     0
  9
$SORTENTS
280
   127
  9
$INDEXCTL
280
     0
  9
$HIDETEXT
280
     1
  9
$XCLIPFRAME
280
     2
  9
$HALOGAP
280
     0
  9
$OBSCOLOR
 70
   257
  9
$OBSLTYPE
280
     0
  9
$INTERSECTIONDISPLAY
280
     0
  9
$INTERSECTIONCOLOR
 70
   257
  9
$DIMASSOC
280
     2
  9
$PROJECTNAME
  1

  9
$CAMERADISPLAY
290
     0
  9
$LENSLENGTH
 40
50.0
  9
$CAMERAHEIGHT
 40
0.0
  9
$STEPSPERSEC
 40
2.0
  9
$STEPSIZE
 40
6.0
  9
$3DDWFPREC
 40
2.0
  9
$PSOLWIDTH
 40
0.25
  9
$PSOLHEIGHT
 40
4.0
  9
$LOFTANG1
 40
1.570796326794896
  9
$LOFTANG2
 40
1.570796326794896
  9
$LOFTMAG1
 40
0.0
  9
$LOFTMAG2
 40
0.0
  9
$LOFTPARAM
 70
     7
  9
$LOFTNORMALS
280
     1
  9
$LATITUDE
 40
37.795
  9
$LONGITUDE
 40
-122.394
  9
$NORTHDIRECTION
 40
0.0
  9
$TIMEZONE
 70
 -8000
  9
$LIGHTGLYPHDISPLAY
280
     1
  9
$TILEMODELIGHTSYNCH
280
     1
  9
$CMATERIAL
347
3510
  9
$SOLIDHIST
280
     0
  9
$SHOWHIST
280
     1
  9
$DWFFRAME
280
     2
  9
$DGNFRAME
280
     2
  9
$REALWORLDSCALE
290
     1
  9
$INTERFERECOLOR
 62
   256
  9
$INTERFEREOBJVS
345
31
  9
$INTERFEREVPVS
346
407E
  9
$CSHADOW
280
     0
  9
$SHADOWPLANELOCATION
 40
0.0
  0
ENDSEC
  0
SECTION
  2
CLASSES
  0
CLASS
  1
ACDBDICTIONARYWDFLT
  2
AcDbDictionaryWithDefault
  3
ObjectDBX Classes
 90
        0
 91
        1
280
     0
281
     0
  0
CLASS
  1
VISUALSTYLE
  2
AcDbVisualStyle
  3
ObjectDBX Classes
 90
     4095
 91
       26
280
     0
281
     0
  0
CLASS
  1
DIMASSOC
  2
AcDbDimAssoc
  3
"AcDbDimAssoc|Product Desc:     AcDim ARX App For Dimension|Company:          Autodesk, Inc.|WEB Address:      www.autodesk.com"
 90
        0
 91
        0
280
     0
281
     0
  0
CLASS
  1
MATERIAL
  2
AcDbMaterial
  3
ObjectDBX Classes
 90
     1153
 91
        3
280
     0
281
     0
  0
CLASS
  1
TABLESTYLE
  2
AcDbTableStyle
  3
ObjectDBX Classes
 90
     4095
 91
        1
280
     0
281
     0
  0
CLASS
  1
DICTIONARYVAR
  2
AcDbDictionaryVar
  3
ObjectDBX Classes
 90
        0
 91
       14
280
     0
281
     0
  0
CLASS
  1
SORTENTSTABLE
  2
AcDbSortentsTable
  3
ObjectDBX Classes
 90
        0
 91
        0
280
     0
281
     0
  0
CLASS
  1
SCALE
  2
AcDbScale
  3
ObjectDBX Classes
 90
     1153
 91
       17
280
     0
281
     0
  0
CLASS
  1
MLEADERSTYLE
  2
AcDbMLeaderStyle
  3
ACDB_MLEADERSTYLE_CLASS
 90
     4095
 91
        1
280
     0
281
     0
  0
CLASS
  1
ACDBSECTIONVIEWSTYLE
  2
AcDbSectionViewStyle
  3
ObjectDBX Classes
 90
     1025
 91
        1
280
     0
281
     0
  0
CLASS
  1
ACDBDETAILVIEWSTYLE
  2
AcDbDetailViewStyle
  3
ObjectDBX Classes
 90
     1025
 91
        1
280
     0
281
     0
  0
CLASS
  1
EXACXREFPANELOBJECT
  2
ExAcXREFPanelObject
  3
EXAC_ESW
 90
     1025
 91
        1
280
     0
281
     0
  0
CLASS
  1
NPOCOLLECTION
  2
AcDbImpNonPersistentObjectsCollection
  3
ObjectDBX Classes
 90
     1153
 91
        1
280
     0
281
     0
  0
CLASS
  1
CELLSTYLEMAP
  2
AcDbCellStyleMap
  3
ObjectDBX Classes
 90
     1152
 91
        1
280
     0
281
     0
  0
ENDSEC
  0
SECTION
  2
TABLES
  0
TABLE
  2
VPORT
  5
8
330
0
100
AcDbSymbolTable
 70
     1
1001
ACAD
1000
DbSaveVer
1071
        8
  0
VPORT
  5
27
330
8
100
AcDbSymbolTableRecord
100
AcDbViewportTableRecord
  2
*Active
 70
     0
 10
0.0
 20
0.0
 11
1.0
 21
1.0
 12
663.2843315475473
 22
467.116813512978
 13
0.0
 23
0.0
 14
0.5
 24
0.5
 15
0.5
 25
0.5
 16
0.0
 26
0.0
 36
1.0
 17
0.0
 27
0.0
 37
0.0
 40
942.1732895785844
 41
2.119148936170212
 42
50.0
 43
0.0
 44
0.0
 50
0.0
 51
0.0
 71
     0
 72
   100
 73
     1
 74
     3
 75
     1
 76
     0
 77
     0
 78
     0
281
     0
 65
     1
110
0.0
120
0.0
130
0.0
111
1.0
121
0.0
131
0.0
112
0.0
122
1.0
132
0.0
 79
     0
146
0.0
348
2D
 60
     3
 61
     5
292
     1
282
     1
141
0.0
142
0.0
 63
   250
421
  3355443
1001
ACAD_NAV_VCDISPLAY
1070
     3
  0
ENDTAB
  0
TABLE
  2
LTYPE
  5
5
330
0
100
AcDbSymbolTable
 70
     8
  0
LTYPE
  5
14
330
5
100
AcDbSymbolTableRecord
100
AcDbLinetypeTableRecord
  2
ByBlock
 70
     0
  3

 72
    65
 73
     0
 40
0.0
  0
LTYPE
  5
15
330
5
100
AcDbSymbolTableRecord
100
AcDbLinetypeTableRecord
  2
ByLayer
 70
     0
  3

 72
    65
 73
     0
 40
0.0
  0
LTYPE
  5
16
330
5
100
AcDbSymbolTableRecord
100
AcDbLinetypeTableRecord
  2
Continuous
 70
     0
  3
Solid line
 72
    65
 73
     0
 40
0.0
  0
LTYPE
  5
5B
330
5
100
AcDbSymbolTableRecord
100
AcDbLinetypeTableRecord
  2
CENTERX2
 70
     0
  3
Center (2x) ________  __  ________  __  _____
 72
    65
 73
     4
 40
101.6
 49
63.5
 74
     4
 75
     0
340
0
 46
1.0
 50
0.0
 44
0.0
 45
0.0
 49
-12.7
 74
     4
 75
     0
340
0
 46
1.0
 50
0.0
 44
0.0
 45
0.0
 49
12.7
 74
     4
 75
     0
340
0
 46
1.0
 50
0.0
 44
0.0
 45
0.0
 49
-12.7
 74
     4
 75
     0
340
0
 46
1.0
 50
0.0
 44
0.0
 45
0.0
  0
LTYPE
  5
192
330
5
100
AcDbSymbolTableRecord
100
AcDbLinetypeTableRecord
  2
CENTER
 70
     0
  3
Center ____ _ ____ _ ____ _ ____ _ ____ _ ____
 72
    65
 73
     4
 40
50.8
 49
31.75
 74
     4
 75
     0
340
0
 46
1.0
 50
0.0
 44
0.0
 45
0.0
 49
-6.349999999999998
 74
     4
 75
     0
340
0
 46
1.0
 50
0.0
 44
0.0
 45
0.0
 49
6.349999999999998
 74
     4
 75
     0
340
0
 46
1.0
 50
0.0
 44
0.0
 45
0.0
 49
-6.349999999999998
 74
     4
 75
     0
340
0
 46
1.0
 50
0.0
 44
0.0
 45
0.0
  0
LTYPE
  5
112E
330
5
100
AcDbSymbolTableRecord
100
AcDbLinetypeTableRecord
  2
DASHED
 70
     0
  3
Dashed __ __ __ __ __ __ __ __ __ __ __ __ __ _
 72
    65
 73
     2
 40
19.05
 49
12.7
 74
     4
 75
     0
340
0
 46
1.0
 50
0.0
 44
0.0
 45
0.0
 49
-6.349999999999998
 74
     4
 75
     0
340
0
 46
1.0
 50
0.0
 44
0.0
 45
0.0
  0
LTYPE
  5
121B
330
5
100
AcDbSymbolTableRecord
100
AcDbLinetypeTableRecord
  2
ACAD_ISO02W100
 70
     0
  3
ISO dash __ __ __ __ __ __ __ __ __ __ __ __ __
 72
    65
 73
     2
 40
15.0
 49
12.0
 74
     4
 75
     0
340
0
 46
1.0
 50
0.0
 44
0.0
 45
0.0
 49
-3.0
 74
     4
 75
     0
340
0
 46
1.0
 50
0.0
 44
0.0
 45
0.0
  0
LTYPE
  5
121C
330
5
100
AcDbSymbolTableRecord
100
AcDbLinetypeTableRecord
  2
DIVIDE
 70
     0
  3
Divide ____ . . ____ . . ____ . . ____ . . ____
 72
    65
 73
     6
 40
31.75
 49
12.7
 74
     4
 75
     0
340
0
 46
1.0
 50
0.0
 44
0.0
 45
0.0
 49
-6.349999999999998
 74
     4
 75
     0
340
0
 46
1.0
 50
0.0
 44
0.0
 45
0.0
 49
0.0
 74
     4
 75
     0
340
0
 46
1.0
 50
0.0
 44
0.0
 45
0.0
 49
-6.349999999999998
 74
     4
 75
     0
340
0
 46
1.0
 50
0.0
 44
0.0
 45
0.0
 49
0.0
 74
     4
 75
     0
340
0
 46
1.0
 50
0.0
 44
0.0
 45
0.0
 49
-6.349999999999998
 74
     4
 75
     0
340
0
 46
1.0
 50
0.0
 44
0.0
 45
0.0
  0
ENDTAB
  0
TABLE
  2
LAYER
  5
2
102
{ACAD_XDICTIONARY
360
36E2
102
}
330
0
100
AcDbSymbolTable
 70
    17
  0
LAYER
  5
10
102
{ACAD_XDICTIONARY
360
4161
102
}
330
2
100
AcDbSymbolTableRecord
100
AcDbLayerTableRecord
  2
0
 70
     0
 62
     7
  6
Continuous
370
    -3
390
F
347
3512
348
0
  0
LAYER
  5
5C
102
{ACAD_XDICTIONARY
360
4163
102
}
330
2
100
AcDbSymbolTableRecord
100
AcDbLayerTableRecord
  2
粗实线
 70
     0
 62
     7
  6
Continuous
370
    30
390
F
347
3512
348
0
1001
AcAecLayerStandard
1000

1000

  0
LAYER
  5
5D
102
{ACAD_XDICTIONARY
360
4165
102
}
330
2
100
AcDbSymbolTableRecord
100
AcDbLayerTableRecord
  2
中心线
 70
     0
 62
     1
  6
CENTERX2
370
    15
390
F
347
3512
348
0
1001
AcAecLayerStandard
1000

1000

  0
LAYER
  5
5E
102
{ACAD_XDICTIONARY
360
4167
102
}
330
2
100
AcDbSymbolTableRecord
100
AcDbLayerTableRecord
  2
标注
 70
     0
 62
     4
  6
Continuous
370
    15
390
F
347
3512
348
0
1001
AcAecLayerStandard
1000

1000

  0
LAYER
  5
5F
330
2
100
AcDbSymbolTableRecord
100
AcDbLayerTableRecord
  2
Defpoints
 70
     0
 62
     7
  6
Continuous
290
     0
370
    -3
390
F
347
3512
348
0
  0
LAYER
  5
118
102
{ACAD_XDICTIONARY
360
4169
102
}
330
2
100
AcDbSymbolTableRecord
100
AcDbLayerTableRecord
  2
图层1粗线
 70
     0
 62
     7
  6
Continuous
370
    -3
390
F
347
3512
348
0
1001
AcAecLayerStandard
1000

1000

  0
LAYER
  5
193
102
{ACAD_XDICTIONARY
360
416B
102
}
330
2
100
AcDbSymbolTableRecord
100
AcDbLayerTableRecord
  2
细实线
 70
     0
 62
     3
  6
Continuous
370
    15
390
F
347
3512
348
0
1001
AcAecLayerStandard
1000

1000

  0
LAYER
  5
357
102
{ACAD_XDICTIONARY
360
416D
102
}
330
2
100
AcDbSymbolTableRecord
100
AcDbLayerTableRecord
  2
图层2
 70
     0
 62
     7
  6
Continuous
370
    30
390
F
347
3512
348
0
1001
AcAecLayerStandard
1000

1000

  0
LAYER
  5
358
102
{ACAD_XDICTIONARY
360
416F
102
}
330
2
100
AcDbSymbolTableRecord
100
AcDbLayerTableRecord
  2
图层3
 70
     0
 62
     7
  6
Continuous
370
    18
390
F
347
3512
348
0
1001
AcAecLayerStandard
1000

1000

  0
LAYER
  5
4E7
102
{ACAD_XDICTIONARY
360
4171
102
}
330
2
100
AcDbSymbolTableRecord
100
AcDbLayerTableRecord
  2
文字
 70
     0
 62
     1
  6
Continuous
370
    15
390
F
347
3512
348
0
1001
AcAecLayerStandard
1000

1000

  0
LAYER
  5
4E8
102
{ACAD_XDICTIONARY
360
4173
102
}
330
2
100
AcDbSymbolTableRecord
100
AcDbLayerTableRecord
  2
不可见
 70
     0
 62
     2
  6
Continuous
290
     0
370
    15
390
F
347
3512
348
0
1001
AcAecLayerStandard
1000

1000

  0
LAYER
  5
4E9
102
{ACAD_XDICTIONARY
360
4175
102
}
330
2
100
AcDbSymbolTableRecord
100
AcDbLayerTableRecord
  2
图层2细线
 70
     0
 62
     3
  6
Continuous
370
    -3
390
F
347
3512
348
0
1001
AcAecLayerStandard
1000

1000

  0
LAYER
  5
4EA
102
{ACAD_XDICTIONARY
360
4177
102
}
330
2
100
AcDbSymbolTableRecord
100
AcDbLayerTableRecord
  2
图框线
 70
     0
 62
     7
  6
Continuous
370
    13
390
F
347
3512
348
0
1001
AcAecLayerStandard
1000

1000

  0
LAYER
  5
4EB
102
{ACAD_XDICTIONARY
360
4179
102
}
330
2
100
AcDbSymbolTableRecord
100
AcDbLayerTableRecord
  2
图层 1
 70
     0
 62
     7
  6
Continuous
370
    -3
390
F
347
3512
348
0
  0
LAYER
  5
112F
102
{ACAD_XDICTIONARY
360
417B
102
}
330
2
100
AcDbSymbolTableRecord
100
AcDbLayerTableRecord
  2
图层1
 70
     0
 62
     7
  6
DASHED
370
    25
390
F
347
3512
348
0
1001
AcAecLayerStandard
1000

1000

  0
LAYER
  5
121D
102
{ACAD_XDICTIONARY
360
417D
102
}
330
2
100
AcDbSymbolTableRecord
100
AcDbLayerTableRecord
  2
虚线
 70
     0
 62
     2
  6
ACAD_ISO02W100
370
    15
390
F
347
3512
348
0
1001
AcAecLayerStandard
1000

1000

  0
LAYER
  5
121E
102
{ACAD_XDICTIONARY
360
417F
102
}
330
2
100
AcDbSymbolTableRecord
100
AcDbLayerTableRecord
  2
剖切线
 70
     0
 62
   241
  6
Continuous
370
    15
390
F
347
3512
348
0
1001
AcAecLayerStandard
1000

1000

  0
ENDTAB
  0
TABLE
  2
STYLE
  5
3
330
0
100
AcDbSymbolTable
 70
     5
  0
STYLE
  5
11
330
3
100
AcDbSymbolTableRecord
100
AcDbTextStyleTableRecord
  2
Standard
 70
     0
 40
0.0
 41
1.0
 50
0.0
 71
     0
 42
0.2
  3
txt
  4

  0
STYLE
  5
5A
330
3
100
AcDbSymbolTableRecord
100
AcDbTextStyleTableRecord
  2
样式 8
 70
     0
 40
10.0
 41
0.7
 50
0.0
 71
     0
 42
10.0
  3
txt.shx
  4
gbcbig.shx
  0
STYLE
  5
117
330
3
100
AcDbSymbolTableRecord
100
AcDbTextStyleTableRecord
  2
样式 1
 70
     0
 40
5.0
 41
1.0
 50
0.0
 71
     0
 42
5.0
  3
txt.shx
  4
gbcbig.shx
  0
STYLE
  5
356
330
3
100
AcDbSymbolTableRecord
100
AcDbTextStyleTableRecord
  2
样式 2
 70
     0
 40
0.0
 41
0.35
 50
0.0
 71
     0
 42
2.5
  3
txt.shx
  4
gbcbig.shx
  0
STYLE
  5
4E6
330
3
100
AcDbSymbolTableRecord
100
AcDbTextStyleTableRecord
  2
样式 3
 70
     0
 40
3.5
 41
0.7
 50
0.0
 71
     0
 42
5.0
  3
txt.shx
  4
gbcbig.shx
  0
ENDTAB
  0
TABLE
  2
VIEW
  5
6
330
0
100
AcDbSymbolTable
 70
     0
  0
ENDTAB
  0
TABLE
  2
UCS
  5
7
330
0
100
AcDbSymbolTable
 70
     0
  0
ENDTAB
  0
TABLE
  2
APPID
  5
9
330
0
100
AcDbSymbolTable
 70
    46
  0
APPID
  5
12
330
9
100
AcDbSymbolTableRecord
100
AcDbRegAppTableRecord
  2
ACAD
 70
     0
  0
APPID
  5
3B
330
9
100
AcDbSymbolTableRecord
100
AcDbRegAppTableRecord
  2
ACAD_PSEXT
 70
     0
  0
APPID
  5
3C
330
9
100
AcDbSymbolTableRecord
100
AcDbRegAppTableRecord
  2
AcAecLayerStandard
 70
     0
  0
APPID
  5
3D
330
9
100
AcDbSymbolTableRecord
100
AcDbRegAppTableRecord
  2
ACAD_DSTYLE_DIMTEXT_FILL
 70
     0
  0
APPID
  5
3E
330
9
100
AcDbSymbolTableRecord
100
AcDbRegAppTableRecord
  2
DCO15
 70
     0
  0
APPID
  5
3F
330
9
100
AcDbSymbolTableRecord
100
AcDbRegAppTableRecord
  2
ACAD_DSTYLE_DIMEXT_LENGTH
 70
     0
  0
APPID
  5
40
330
9
100
AcDbSymbolTableRecord
100
AcDbRegAppTableRecord
  2
ACAD_DSTYLE_DIMEXT_ENABLED
 70
     0
  0
APPID
  5
41
330
9
100
AcDbSymbolTableRecord
100
AcDbRegAppTableRecord
  2
ACAD_DSTYLE_DIM_LINETYPE
 70
     0
  0
APPID
  5
42
330
9
100
AcDbSymbolTableRecord
100
AcDbRegAppTableRecord
  2
ACAD_DSTYLE_DIM_EXT1_LINETYPE
 70
     0
  0
APPID
  5
43
330
9
100
AcDbSymbolTableRecord
100
AcDbRegAppTableRecord
  2
ACAD_DSTYLE_DIM_EXT2_LINETYPE
 70
     0
  0
APPID
  5
44
330
9
100
AcDbSymbolTableRecord
100
AcDbRegAppTableRecord
  2
ACAD_EXEMPT_FROM_CAD_STANDARDS
 70
     0
  0
APPID
  5
45
330
9
100
AcDbSymbolTableRecord
100
AcDbRegAppTableRecord
  2
AcadAnnoPO
 70
     0
  0
APPID
  5
46
330
9
100
AcDbSymbolTableRecord
100
AcDbRegAppTableRecord
  2
AcadAnnotative
 70
     0
  0
APPID
  5
47
330
9
100
AcDbSymbolTableRecord
100
AcDbRegAppTableRecord
  2
ACAD_DSTYLE_DIMJAG
 70
     0
  0
APPID
  5
48
330
9
100
AcDbSymbolTableRecord
100
AcDbRegAppTableRecord
  2
ACAD_DSTYLE_DIMTALN
 70
     0
  0
APPID
  5
49
330
9
100
AcDbSymbolTableRecord
100
AcDbRegAppTableRecord
  2
ACAD_MLEADERVER
 70
     0
  0
APPID
  5
4A
330
9
100
AcDbSymbolTableRecord
100
AcDbRegAppTableRecord
  2
ACAD_DSTYLE_DIMRADIAL_EXTENSION
 70
     0
  0
APPID
  5
4B
330
9
100
AcDbSymbolTableRecord
100
AcDbRegAppTableRecord
  2
ACAD_DSTYLE_DIMBREAK
 70
     0
  0
APPID
  5
4C
330
9
100
AcDbSymbolTableRecord
100
AcDbRegAppTableRecord
  2
ACAD_DSTYLE_DIMARC_LENGTH_SYMBOL
 70
     0
  0
APPID
  5
4D
330
9
100
AcDbSymbolTableRecord
100
AcDbRegAppTableRecord
  2
ACAD_DSTYLE_DIMJOGGED_JOGANGLE_SYMBOL
 70
     0
  0
APPID
  5
4E
330
9
100
AcDbSymbolTableRecord
100
AcDbRegAppTableRecord
  2
MCAD_NO_VIS
 70
     0
  0
APPID
  5
4F
330
9
100
AcDbSymbolTableRecord
100
AcDbRegAppTableRecord
  2
ACAD_TEMP_GRAPHIC
 70
     0
  0
APPID
  5
50
330
9
100
AcDbSymbolTableRecord
100
AcDbRegAppTableRecord
  2
AD_DRAW
 70
     0
  0
APPID
  5
51
330
9
100
AcDbSymbolTableRecord
100
AcDbRegAppTableRecord
  2
ACATTRIBSERVICES
 70
     0
  0
APPID
  5
52
330
9
100
AcDbSymbolTableRecord
100
AcDbRegAppTableRecord
  2
DESIGNERASSEMBLIES
 70
     0
  0
APPID
  5
53
330
9
100
AcDbSymbolTableRecord
100
AcDbRegAppTableRecord
  2
ACADM_DIM_EDIT
 70
     0
  0
APPID
  5
54
330
9
100
AcDbSymbolTableRecord
100
AcDbRegAppTableRecord
  2
AMDT_DM_ADJ
 70
     0
  0
APPID
  5
55
330
9
100
AcDbSymbolTableRecord
100
AcDbRegAppTableRecord
  2
GENIUS_GENODEF_13
 70
     0
  0
APPID
  5
56
330
9
100
AcDbSymbolTableRecord
100
AcDbRegAppTableRecord
  2
GENIUS_GENOBJ-N-FIL_13
 70
     0
  0
APPID
  5
57
330
9
100
AcDbSymbolTableRecord
100
AcDbRegAppTableRecord
  2
ACAD_DIMASSOC_CALC_DIMLFAC
 70
     0
  0
APPID
  5
58
330
9
100
AcDbSymbolTableRecord
100
AcDbRegAppTableRecord
  2
ACAD_DIMASSOC_DIMLFAC
 70
     0
  0
APPID
  5
59
330
9
100
AcDbSymbolTableRecord
100
AcDbRegAppTableRecord
  2
ACAD_DIMASSOC_OVERRIDDEN_DIMLFAC
 70
     0
  0
APPID
  5
4E5
330
9
100
AcDbSymbolTableRecord
100
AcDbRegAppTableRecord
  2
CAXA
 70
     0
  0
APPID
  5
1BF7
330
9
100
AcDbSymbolTableRecord
100
AcDbRegAppTableRecord
  2
AVE_RENDER
 70
     0
  0
APPID
  5
1BF8
330
9
100
AcDbSymbolTableRecord
100
AcDbRegAppTableRecord
  2
AVE_ENTITY_MATERIAL
 70
     0
  0
APPID
  5
1BF9
330
9
100
AcDbSymbolTableRecord
100
AcDbRegAppTableRecord
  2
AVE_FINISH
 70
     0
  0
APPID
  5
1BFA
330
9
100
AcDbSymbolTableRecord
100
AcDbRegAppTableRecord
  2
AVE_MATERIAL
 70
     0
  0
APPID
  5
1BFB
330
9
100
AcDbSymbolTableRecord
100
AcDbRegAppTableRecord
  2
AVE_GLOBAL
 70
     0
  0
APPID
  5
1BFC
330
9
100
AcDbSymbolTableRecord
100
AcDbRegAppTableRecord
  2
GENIUS_GENBLLY_14
 70
     0
  0
APPID
  5
1BFD
330
9
100
AcDbSymbolTableRecord
100
AcDbRegAppTableRecord
  2
ODA
 70
     0
  0
APPID
  5
1BFE
330
9
100
AcDbSymbolTableRecord
100
AcDbRegAppTableRecord
  2
RAK
 70
     0
  0
APPID
  5
1BFF
330
9
100
AcDbSymbolTableRecord
100
AcDbRegAppTableRecord
  2
AcDbDynamicBlockGUID
 70
     0
  0
APPID
  5
1C00
330
9
100
AcDbSymbolTableRecord
100
AcDbRegAppTableRecord
  2
AcDbBlockRepETag
 70
     0
  0
APPID
  5
1C01
330
9
100
AcDbSymbolTableRecord
100
AcDbRegAppTableRecord
  2
ACAUTHENVIRON
 70
     0
  0
APPID
  5
1C02
330
9
100
AcDbSymbolTableRecord
100
AcDbRegAppTableRecord
  2
AcDbDynamicBlockTrueName
 70
     0
  0
APPID
  5
4110
330
9
100
AcDbSymbolTableRecord
100
AcDbRegAppTableRecord
  2
ACAD_NAV_VCDISPLAY
 70
     0
  0
ENDTAB
  0
TABLE
  2
DIMSTYLE
  5
A
330
0
100
AcDbSymbolTable
 70
     6
100
AcDbDimStyleTable
 71
     1
340
25
  0
DIMSTYLE
105
25
330
A
100
AcDbSymbolTableRecord
100
AcDbDimStyleTableRecord
  2
Standard
 70
     0
340
11
  0
DIMSTYLE
105
60
330
A
100
AcDbSymbolTableRecord
100
AcDbDimStyleTableRecord
  2
副本 (3) ISO-25 4
 70
     0
 41
14.0
 42
0.0
 43
10.0
 44
6.0
 73
     0
 74
     0
 77
     1
 78
     8
140
20.0
141
7.5
143
0.03937007874016
147
1.5
171
     3
172
     1
271
     1
272
     1
274
     3
283
     0
284
     8
340
11
  0
DIMSTYLE
105
119
330
A
100
AcDbSymbolTableRecord
100
AcDbDimStyleTableRecord
  2
副本 ISO-25
 70
     0
 41
12.0
 42
0.0
 43
10.0
 44
5.0
 73
     0
 74
     0
 77
     1
 78
     8
140
18.0
141
1.5
143
0.03937007874016
147
1.5
171
     3
172
     1
271
     1
272
     1
274
     3
278
    44
283
     0
284
     8
340
11
  0
DIMSTYLE
105
359
330
A
100
AcDbSymbolTableRecord
100
AcDbDimStyleTableRecord
  2
ISO-25
 70
     0
 41
17.0
 42
3.0
 43
3.75
 44
1.25
 73
     0
 77
     1
 78
     8
140
19.0
141
80.0
143
0.03937007874016
147
7.0
170
     1
171
     3
172
     1
271
     2
272
     2
273
     7
274
     3
283
     0
284
     8
340
11
  0
DIMSTYLE
105
4EC
102
{ACAD_REACTORS
330
4119
330
411A
102
}
330
A
100
AcDbSymbolTableRecord
100
AcDbDimStyleTableRecord
  2
英寸
 70
     0
 41
12.0
 42
0.0
 43
10.0
 44
3.75
 73
     0
 74
     0
 77
     1
 78
     8
140
16.0
141
7.5
143
0.03937007874016
147
2.0
170
     1
171
     3
172
     1
179
     1
271
     1
272
     1
273
     7
274
     3
283
     0
284
     8
340
11
  0
ENDTAB
  0
TABLE
  2
BLOCK_RECORD
  5
1
330
0
100
AcDbSymbolTable
 70
    15
  0
BLOCK_RECORD
  5
1F
330
1
100
AcDbSymbolTableRecord
100
AcDbBlockTableRecord
  2
*Model_Space
340
22
 70
     0
280
     1
281
     0
  0
BLOCK_RECORD
  5
1B
330
1
100
AcDbSymbolTableRecord
100
AcDbBlockTableRecord
  2
*Paper_Space
340
1E
 70
     0
280
     1
281
     0
  0
BLOCK_RECORD
  5
23
330
1
100
AcDbSymbolTableRecord
100
AcDbBlockTableRecord
  2
*Paper_Space0
340
24
 70
     0
280
     1
281
     0
  0
BLOCK_RECORD
  5
3C6A
330
1
100
AcDbSymbolTableRecord
100
AcDbBlockTableRecord
  2
*D1
340
0
 70
     0
280
     1
281
     0
  0
BLOCK_RECORD
  5
3C78
330
1
100
AcDbSymbolTableRecord
100
AcDbBlockTableRecord
  2
*D2
340
0
 70
     0
280
     1
281
     0
  0
BLOCK_RECORD
  5
3CA2
330
1
100
AcDbSymbolTableRecord
100
AcDbBlockTableRecord
  2
*D3
340
0
 70
     0
280
     1
281
     0
  0
BLOCK_RECORD
  5
3CAE
330
1
100
AcDbSymbolTableRecord
100
AcDbBlockTableRecord
  2
*D4
340
0
 70
     0
280
     1
281
     0
  0
BLOCK_RECORD
  5
3CBA
330
1
100
AcDbSymbolTableRecord
100
AcDbBlockTableRecord
  2
*D5
340
0
 70
     0
280
     1
281
     0
  0
BLOCK_RECORD
  5
3CC6
330
1
100
AcDbSymbolTableRecord
100
AcDbBlockTableRecord
  2
*D6
340
0
 70
     0
280
     1
281
     0
  0
BLOCK_RECORD
  5
3CD2
330
1
100
AcDbSymbolTableRecord
100
AcDbBlockTableRecord
  2
*D7
340
0
 70
     0
280
     1
281
     0
  0
BLOCK_RECORD
  5
3CDE
330
1
100
AcDbSymbolTableRecord
100
AcDbBlockTableRecord
  2
*D8
340
0
 70
     0
280
     1
281
     0
  0
BLOCK_RECORD
  5
40F8
330
1
100
AcDbSymbolTableRecord
100
AcDbBlockTableRecord
  2
*D9
340
0
 70
     0
280
     1
281
     0
  0
BLOCK_RECORD
  5
4104
330
1
100
AcDbSymbolTableRecord
100
AcDbBlockTableRecord
  2
*D10
340
0
 70
     0
280
     1
281
     0
  0
BLOCK_RECORD
  5
411D
330
1
100
AcDbSymbolTableRecord
100
AcDbBlockTableRecord
  2
*D12
340
0
 70
     0
280
     1
281
     0
  0
BLOCK_RECORD
  5
4129
330
1
100
AcDbSymbolTableRecord
100
AcDbBlockTableRecord
  2
*D13
340
0
 70
     0
280
     1
281
     0
  0
ENDTAB
  0
ENDSEC
  0
SECTION
  2
BLOCKS
  0
BLOCK
  5
20
330
1F
100
AcDbEntity
  8
0
100
AcDbBlockBegin
  2
*Model_Space
 70
     0
 10
0.0
 20
0.0
 30
0.0
  3
*Model_Space
  1

  0
ENDBLK
  5
21
330
1F
100
AcDbEntity
  8
0
100
AcDbBlockEnd
  0
BLOCK
  5
1C
330
1B
100
AcDbEntity
 67
     1
  8
0
100
AcDbBlockBegin
  2
*Paper_Space
 70
     0
 10
0.0
 20
0.0
 30
0.0
  3
*Paper_Space
  1

  0
ENDBLK
  5
1D
330
1B
100
AcDbEntity
 67
     1
  8
0
100
AcDbBlockEnd
  0
BLOCK
  5
39
330
23
100
AcDbEntity
 67
     1
  8
0
100
AcDbBlockBegin
  2
*Paper_Space0
 70
     0
 10
0.0
 20
0.0
 30
0.0
  3
*Paper_Space0
  1

  0
ENDBLK
  5
3A
330
23
100
AcDbEntity
 67
     1
  8
0
100
AcDbBlockEnd
  0
BLOCK
  5
3C76
330
3C6A
100
AcDbEntity
  8
0
100
AcDbBlockBegin
  2
*D1
 70
     1
 10
0.0
 20
0.0
 30
0.0
  3
*D1
  1

  0
LINE
  5
3E42
330
3C6A
100
AcDbEntity
  8
标注
 62
     0
440
 16777216
370
    -2
100
AcDbLine
 10
1108.693953124372
 20
504.8764167687636
 30
0.0
 11
1108.693953124372
 21
464.998989912962
 31
0.0
  0
LINE
  5
3E43
330
3C6A
100
AcDbEntity
  8
标注
 62
     0
440
 16777216
370
    -2
100
AcDbLine
 10
1115.043953124374
 20
504.8764167687564
 30
0.0
 11
1115.043953124374
 21
464.998989912962
 31
0.0
  0
LINE
  5
3E44
330
3C6A
100
AcDbEntity
  8
标注
 62
     0
440
 16777216
370
    -2
100
AcDbLine
 10
1123.043953124374
 20
468.7489899129618
 30
0.0
 11
1131.043953124375
 21
468.7489899129618
 31
0.0
  0
LINE
  5
3E45
330
3C6A
100
AcDbEntity
  8
标注
 62
     0
440
 16777216
370
    -2
100
AcDbLine
 10
1100.693953124372
 20
468.7489899129618
 30
0.0
 11
993.4524797273738
 21
468.7489899129618
 31
0.0
  0
LINE
  5
3E46
330
3C6A
100
AcDbEntity
  8
标注
 62
     0
440
 16777216
370
    -2
100
AcDbLine
 10
1115.043953124374
 20
468.7489899129618
 30
0.0
 11
1108.693953124372
 21
468.7489899129618
 31
0.0
  0
SOLID
  5
3E47
330
3C6A
100
AcDbEntity
  8
标注
 62
     0
440
 16777216
100
AcDbTrace
 10
1123.043953124374
 20
470.0823232462951
 30
0.0
 11
1123.043953124374
 21
467.4156565796287
 31
0.0
 12
1115.043953124374
 22
468.7489899129618
 32
0.0
 13
1115.043953124374
 23
468.7489899129618
 33
0.0
  0
SOLID
  5
3E48
330
3C6A
100
AcDbEntity
  8
标注
 62
     0
440
 16777216
100
AcDbTrace
 10
1100.693953124372
 20
470.0823232462951
 30
0.0
 11
1100.693953124372
 21
467.4156565796287
 31
0.0
 12
1108.693953124372
 22
468.7489899129618
 32
0.0
 13
1108.693953124372
 23
468.7489899129618
 33
0.0
  0
MTEXT
  5
3E49
330
3C6A
100
AcDbEntity
  8
标注
 62
     0
440
 16777216
100
AcDbMText
 10
1034.693953124372
 20
481.1064251107792
 30
0.0
 40
16.0
 41
0.0
 46
0.0
 71
     5
 72
     1
  1
{\fArial|b0|i0|c0|p34;6.4 [1/4]}
 73
     1
 44
1.0
1001
ACAD
1000
MTEXTBEGIN
1070
    73
1070
     1
1070
    44
1040
1.0
1070
    74
1070
     0
1000
MTEXTEND
  0
POINT
  5
3E4A
330
3C6A
100
AcDbEntity
  8
Defpoints
 62
     0
440
 16777216
100
AcDbPoint
 10
1108.693953124372
 20
504.8764167687636
 30
0.0
  0
POINT
  5
3E4B
330
3C6A
100
AcDbEntity
  8
Defpoints
 62
     0
440
 16777216
100
AcDbPoint
 10
1115.043953124374
 20
504.8764167687564
 30
0.0
  0
POINT
  5
3E4C
330
3C6A
100
AcDbEntity
  8
Defpoints
 62
     0
440
 16777216
100
AcDbPoint
 10
1115.043953124374
 20
468.7489899129618
 30
0.0
  0
ENDBLK
  5
3C77
330
3C6A
100
AcDbEntity
  8
0
100
AcDbBlockEnd
  0
BLOCK
  5
3C84
330
3C78
100
AcDbEntity
  8
0
100
AcDbBlockBegin
  2
*D2
 70
     1
 10
0.0
 20
0.0
 30
0.0
  3
*D2
  1

  0
LINE
  5
3E4D
330
3C78
100
AcDbEntity
  8
标注
 62
     0
440
 16777216
370
    -2
100
AcDbLine
 10
1115.043953124374
 20
504.8764167687564
 30
0.0
 11
1115.043953124374
 21
428.5996402825782
 31
0.0
  0
LINE
  5
3E4E
330
3C78
100
AcDbEntity
  8
标注
 62
     0
440
 16777216
370
    -2
100
AcDbLine
 10
1121.393953124377
 20
504.8764167687636
 30
0.0
 11
1121.393953124377
 21
428.5996402825782
 31
0.0
  0
LINE
  5
3E4F
330
3C78
100
AcDbEntity
  8
标注
 62
     0
440
 16777216
370
    -2
100
AcDbLine
 10
1129.393953124377
 20
432.3496402825782
 30
0.0
 11
1137.393953124377
 21
432.3496402825782
 31
0.0
  0
LINE
  5
3E50
330
3C78
100
AcDbEntity
  8
标注
 62
     0
440
 16777216
370
    -2
100
AcDbLine
 10
1107.043953124374
 20
432.3496402825782
 30
0.0
 11
999.8024797273759
 21
432.3496402825782
 31
0.0
  0
LINE
  5
3E51
330
3C78
100
AcDbEntity
  8
标注
 62
     0
440
 16777216
370
    -2
100
AcDbLine
 10
1121.393953124377
 20
432.3496402825782
 30
0.0
 11
1115.043953124374
 21
432.3496402825782
 31
0.0
  0
SOLID
  5
3E52
330
3C78
100
AcDbEntity
  8
标注
 62
     0
440
 16777216
100
AcDbTrace
 10
1129.393953124377
 20
433.6829736159114
 30
0.0
 11
1129.393953124377
 21
431.0163069492448
 31
0.0
 12
1121.393953124377
 22
432.3496402825782
 32
0.0
 13
1121.393953124377
 23
432.3496402825782
 33
0.0
  0
SOLID
  5
3E53
330
3C78
100
AcDbEntity
  8
标注
 62
     0
440
 16777216
100
AcDbTrace
 10
1107.043953124374
 20
433.6829736159114
 30
0.0
 11
1107.043953124374
 21
431.0163069492448
 31
0.0
 12
1115.043953124374
 22
432.3496402825782
 32
0.0
 13
1115.043953124374
 23
432.3496402825782
 33
0.0
  0
MTEXT
  5
3E54
330
3C78
100
AcDbEntity
  8
标注
 62
     0
440
 16777216
100
AcDbMText
 10
1041.043953124374
 20
444.7070754803953
 30
0.0
 40
16.0
 41
0.0
 46
0.0
 71
     5
 72
     1
  1
{\fArial|b0|i0|c0|p34;6.4 [1/4]}
 73
     1
 44
1.0
1001
ACAD
1000
MTEXTBEGIN
1070
    73
1070
     1
1070
    44
1040
1.0
1070
    74
1070
     0
1000
MTEXTEND
  0
POINT
  5
3E55
330
3C78
100
AcDbEntity
  8
Defpoints
 62
     0
440
 16777216
100
AcDbPoint
 10
1115.043953124374
 20
504.8764167687564
 30
0.0
  0
POINT
  5
3E56
330
3C78
100
AcDbEntity
  8
Defpoints
 62
     0
440
 16777216
100
AcDbPoint
 10
1121.393953124377
 20
504.8764167687636
 30
0.0
  0
POINT
  5
3E57
330
3C78
100
AcDbEntity
  8
Defpoints
 62
     0
440
 16777216
100
AcDbPoint
 10
1121.393953124377
 20
432.3496402825782
 30
0.0
  0
ENDBLK
  5
3C85
330
3C78
100
AcDbEntity
  8
0
100
AcDbBlockEnd
  0
BLOCK
  5
3CAC
330
3CA2
100
AcDbEntity
  8
0
100
AcDbBlockBegin
  2
*D3
 70
     1
 10
0.0
 20
0.0
 30
0.0
  3
*D3
  1

  0
LINE
  5
3E58
330
3CA2
100
AcDbEntity
  8
标注
 62
     0
440
 16777216
370
    -2
100
AcDbLine
 10
1115.043953068283
 20
780.5
 30
0.0
 11
1115.043953068283
 21
847.2725673309666
 31
0.0
  0
LINE
  5
3E59
330
3CA2
100
AcDbEntity
  8
标注
 62
     0
440
 16777216
370
    -2
100
AcDbLine
 10
365.0439530682883
 20
785.5
 30
0.0
 11
365.0439530682883
 21
847.2725673309666
 31
0.0
  0
LINE
  5
3E5A
330
3CA2
100
AcDbEntity
  8
标注
 62
     0
440
 16777216
370
    -2
100
AcDbLine
 10
1107.043953068283
 20
843.5225673309666
 30
0.0
 11
373.0439530682883
 21
843.5225673309666
 31
0.0
  0
SOLID
  5
3E5B
330
3CA2
100
AcDbEntity
  8
标注
 62
     0
440
 16777216
100
AcDbTrace
 10
1107.043953068283
 20
844.8559006643
 30
0.0
 11
1107.043953068283
 21
842.1892339976333
 31
0.0
 12
1115.043953068283
 22
843.5225673309666
 32
0.0
 13
1115.043953068283
 23
843.5225673309666
 33
0.0
  0
SOLID
  5
3E5C
330
3CA2
100
AcDbEntity
  8
标注
 62
     0
440
 16777216
100
AcDbTrace
 10
373.0439530682883
 20
844.8559006643
 30
0.0
 11
373.0439530682883
 21
842.1892339976333
 31
0.0
 12
365.0439530682883
 22
843.5225673309666
 32
0.0
 13
365.0439530682883
 23
843.5225673309666
 33
0.0
  0
MTEXT
  5
3E5D
330
3CA2
100
AcDbEntity
  8
标注
 62
     0
440
 16777216
100
AcDbMText
 10
747.5000000000009
 20
855.8800025287839
 30
0.0
 40
16.0
 41
0.0
 46
0.0
 71
     5
 72
     1
  1
{\fArial|b0|i0|c0|p34;750 [29 1/2]}
 73
     1
 44
1.0
1001
ACAD
1000
MTEXTBEGIN
1070
    73
1070
     1
1070
    44
1040
1.0
1070
    74
1070
     0
1000
MTEXTEND
  0
POINT
  5
3E5E
330
3CA2
100
AcDbEntity
  8
Defpoints
 62
     0
440
 16777216
100
AcDbPoint
 10
1115.043953068283
 20
780.5
 30
0.0
  0
POINT
  5
3E5F
330
3CA2
100
AcDbEntity
  8
Defpoints
 62
     0
440
 16777216
100
AcDbPoint
 10
365.0439530682883
 20
785.5
 30
0.0
  0
POINT
  5
3E60
330
3CA2
100
AcDbEntity
  8
Defpoints
 62
     0
440
 16777216
100
AcDbPoint
 10
365.0439530682883
 20
843.5225673309666
 30
0.0
  0
ENDBLK
  5
3CAD
330
3CA2
100
AcDbEntity
  8
0
100
AcDbBlockEnd
  0
BLOCK
  5
3CB8
330
3CAE
100
AcDbEntity
  8
0
100
AcDbBlockBegin
  2
*D4
 70
     1
 10
0.0
 20
0.0
 30
0.0
  3
*D4
  1

  0
LINE
  5
3E61
330
3CAE
100
AcDbEntity
  8
标注
 62
     0
440
 16777216
370
    -2
100
AcDbLine
 10
367.5
 20
771.8764225820247
 30
0.0
 11
289.4862295647664
 21
771.8764225820247
 31
0.0
  0
LINE
  5
3E62
330
3CAE
100
AcDbEntity
  8
标注
 62
     0
440
 16777216
370
    -2
100
AcDbLine
 10
363.5
 20
301.8764225820269
 30
0.0
 11
289.4862295647663
 21
301.8764225820269
 31
0.0
  0
LINE
  5
3E63
330
3CAE
100
AcDbEntity
  8
标注
 62
     0
440
 16777216
370
    -2
100
AcDbLine
 10
293.2362295647664
 20
763.8764225820247
 30
0.0
 11
293.2362295647663
 21
309.8764225820269
 31
0.0
  0
SOLID
  5
3E64
330
3CAE
100
AcDbEntity
  8
标注
 62
     0
440
 16777216
100
AcDbTrace
 10
291.9028962314332
 20
763.8764225820247
 30
0.0
 11
294.5695628980997
 21
763.8764225820247
 31
0.0
 12
293.2362295647664
 22
771.8764225820247
 32
0.0
 13
293.2362295647664
 23
771.8764225820247
 33
0.0
  0
SOLID
  5
3E65
330
3CAE
100
AcDbEntity
  8
标注
 62
     0
440
 16777216
100
AcDbTrace
 10
291.902896231433
 20
309.8764225820269
 30
0.0
 11
294.5695628980996
 21
309.8764225820269
 31
0.0
 12
293.2362295647663
 22
301.8764225820269
 32
0.0
 13
293.2362295647663
 23
301.8764225820269
 33
0.0
  0
MTEXT
  5
3E66
330
3CAE
100
AcDbEntity
  8
标注
 62
     0
440
 16777216
100
AcDbMText
 10
280.8787943669491
 20
536.6500000000009
 30
0.0
 40
16.0
 41
0.0
 46
0.0
 71
     5
 72
     1
  1
{\fArial|b0|i0|c0|p34;470 [18 1/2]}
 11
0.0000000000000001
 21
1.0
 31
0.0
 73
     1
 44
1.0
1001
ACAD
1000
MTEXTBEGIN
1070
    73
1070
     1
1070
    44
1040
1.0
1070
    74
1070
     0
1000
MTEXTEND
  0
POINT
  5
3E67
330
3CAE
100
AcDbEntity
  8
Defpoints
 62
     0
440
 16777216
100
AcDbPoint
 10
367.5
 20
771.8764225820247
 30
0.0
  0
POINT
  5
3E68
330
3CAE
100
AcDbEntity
  8
Defpoints
 62
     0
440
 16777216
100
AcDbPoint
 10
363.5
 20
301.8764225820269
 30
0.0
  0
POINT
  5
3E69
330
3CAE
100
AcDbEntity
  8
Defpoints
 62
     0
440
 16777216
100
AcDbPoint
 10
293.2362295647663
 20
301.8764225820269
 30
0.0
  0
ENDBLK
  5
3CB9
330
3CAE
100
AcDbEntity
  8
0
100
AcDbBlockEnd
  0
BLOCK
  5
3CC4
330
3CBA
100
AcDbEntity
  8
0
100
AcDbBlockBegin
  2
*D5
 70
     1
 10
0.0
 20
0.0
 30
0.0
  3
*D5
  1

  0
LINE
  5
3E6A
330
3CBA
100
AcDbEntity
  8
标注
 62
     0
440
 16777216
370
    -2
100
AcDbLine
 10
1121.393953124377
 20
778.5
 30
0.0
 11
1121.393953124377
 21
880.7725673309668
 31
0.0
  0
LINE
  5
3E6B
330
3CBA
100
AcDbEntity
  8
标注
 62
     0
440
 16777216
370
    -2
100
AcDbLine
 10
358.6939530682862
 20
789.0
 30
0.0
 11
358.6939530682862
 21
880.7725673309668
 31
0.0
  0
LINE
  5
3E6C
330
3CBA
100
AcDbEntity
  8
标注
 62
     0
440
 16777216
370
    -2
100
AcDbLine
 10
1113.393953124377
 20
877.0225673309667
 30
0.0
 11
366.6939530682862
 21
877.0225673309667
 31
0.0
  0
SOLID
  5
3E6D
330
3CBA
100
AcDbEntity
  8
标注
 62
     0
440
 16777216
100
AcDbTrace
 10
1113.393953124377
 20
878.3559006643001
 30
0.0
 11
1113.393953124377
 21
875.6892339976332
 31
0.0
 12
1121.393953124377
 22
877.0225673309667
 32
0.0
 13
1121.393953124377
 23
877.0225673309667
 33
0.0
  0
SOLID
  5
3E6E
330
3CBA
100
AcDbEntity
  8
标注
 62
     0
440
 16777216
100
AcDbTrace
 10
366.6939530682862
 20
878.3559006643001
 30
0.0
 11
366.6939530682862
 21
875.6892339976332
 31
0.0
 12
358.6939530682862
 22
877.0225673309667
 32
0.0
 13
358.6939530682862
 23
877.0225673309667
 33
0.0
  0
MTEXT
  5
3E6F
330
3CBA
100
AcDbEntity
  8
标注
 62
     0
440
 16777216
100
AcDbMText
 10
747.5000000000009
 20
889.2763190362872
 30
0.0
 40
16.0
 41
0.0
 46
0.0
 71
     5
 72
     1
  1
{\fArial|b0|i0|c0|p34;762.7 [30]}
 73
     1
 44
1.0
1001
ACAD
1000
MTEXTBEGIN
1070
    73
1070
     1
1070
    44
1040
1.0
1070
    74
1070
     0
1000
MTEXTEND
  0
POINT
  5
3E70
330
3CBA
100
AcDbEntity
  8
Defpoints
 62
     0
440
 16777216
100
AcDbPoint
 10
1121.393953124377
 20
778.5
 30
0.0
  0
POINT
  5
3E71
330
3CBA
100
AcDbEntity
  8
Defpoints
 62
     0
440
 16777216
100
AcDbPoint
 10
358.6939530682862
 20
789.0
 30
0.0
  0
POINT
  5
3E72
330
3CBA
100
AcDbEntity
  8
Defpoints
 62
     0
440
 16777216
100
AcDbPoint
 10
358.6939530682862
 20
877.0225673309667
 30
0.0
  0
ENDBLK
  5
3CC5
330
3CBA
100
AcDbEntity
  8
0
100
AcDbBlockEnd
  0
BLOCK
  5
3CD0
330
3CC6
100
AcDbEntity
  8
0
100
AcDbBlockBegin
  2
*D6
 70
     1
 10
0.0
 20
0.0
 30
0.0
  3
*D6
  1

  0
LINE
  5
3E73
330
3CC6
100
AcDbEntity
  8
标注
 62
     0
440
 16777216
370
    -2
100
AcDbLine
 10
371.5
 20
778.2264225820222
 30
0.0
 11
258.4862295647664
 21
778.2264225820222
 31
0.0
  0
LINE
  5
3E74
330
3CC6
100
AcDbEntity
  8
标注
 62
     0
440
 16777216
370
    -2
100
AcDbLine
 10
367.5
 20
295.5264225820283
 30
0.0
 11
258.4862295647663
 21
295.5264225820283
 31
0.0
  0
LINE
  5
3E75
330
3CC6
100
AcDbEntity
  8
标注
 62
     0
440
 16777216
370
    -2
100
AcDbLine
 10
262.2362295647664
 20
770.2264225820222
 30
0.0
 11
262.2362295647663
 21
303.5264225820283
 31
0.0
  0
SOLID
  5
3E76
330
3CC6
100
AcDbEntity
  8
标注
 62
     0
440
 16777216
100
AcDbTrace
 10
260.9028962314331
 20
770.2264225820222
 30
0.0
 11
263.5695628980997
 21
770.2264225820222
 31
0.0
 12
262.2362295647664
 22
778.2264225820222
 32
0.0
 13
262.2362295647664
 23
778.2264225820222
 33
0.0
  0
SOLID
  5
3E77
330
3CC6
100
AcDbEntity
  8
标注
 62
     0
440
 16777216
100
AcDbTrace
 10
260.902896231433
 20
303.5264225820283
 30
0.0
 11
263.5695628980996
 21
303.5264225820283
 31
0.0
 12
262.2362295647663
 22
295.5264225820283
 32
0.0
 13
262.2362295647663
 23
295.5264225820283
 33
0.0
  0
MTEXT
  5
3E78
330
3CC6
100
AcDbEntity
  8
标注
 62
     0
440
 16777216
100
AcDbMText
 10
249.9824778594457
 20
536.6500000000018
 30
0.0
 40
16.0
 41
0.0
 46
0.0
 71
     5
 72
     1
  1
{\fArial|b0|i0|c0|p34;482.7 [19]}
 11
0.0000000000000001
 21
1.0
 31
0.0
 73
     1
 44
1.0
1001
ACAD
1000
MTEXTBEGIN
1070
    73
1070
     1
1070
    44
1040
1.0
1070
    74
1070
     0
1000
MTEXTEND
  0
POINT
  5
3E79
330
3CC6
100
AcDbEntity
  8
Defpoints
 62
     0
440
 16777216
100
AcDbPoint
 10
371.5
 20
778.2264225820222
 30
0.0
  0
POINT
  5
3E7A
330
3CC6
100
AcDbEntity
  8
Defpoints
 62
     0
440
 16777216
100
AcDbPoint
 10
367.5
 20
295.5264225820283
 30
0.0
  0
POINT
  5
3E7B
330
3CC6
100
AcDbEntity
  8
Defpoints
 62
     0
440
 16777216
100
AcDbPoint
 10
262.2362295647663
 20
295.5264225820283
 30
0.0
  0
ENDBLK
  5
3CD1
330
3CC6
100
AcDbEntity
  8
0
100
AcDbBlockEnd
  0
BLOCK
  5
3CDC
330
3CD2
100
AcDbEntity
  8
0
100
AcDbBlockBegin
  2
*D7
 70
     1
 10
0.0
 20
0.0
 30
0.0
  3
*D7
  1

  0
LINE
  5
3E7C
330
3CD2
100
AcDbEntity
  8
标注
 62
     0
440
 16777216
370
    -2
100
AcDbLine
 10
1108.693953123907
 20
777.5
 30
0.0
 11
1108.693953123907
 21
816.2725673309667
 31
0.0
  0
LINE
  5
3E7D
330
3CD2
100
AcDbEntity
  8
标注
 62
     0
440
 16777216
370
    -2
100
AcDbLine
 10
371.393953068286
 20
787.5
 30
0.0
 11
371.393953068286
 21
816.2725673309667
 31
0.0
  0
LINE
  5
3E7E
330
3CD2
100
AcDbEntity
  8
标注
 62
     0
440
 16777216
370
    -2
100
AcDbLine
 10
1100.693953123907
 20
812.5225673309667
 30
0.0
 11
379.3939530682859
 21
812.5225673309667
 31
0.0
  0
SOLID
  5
3E7F
330
3CD2
100
AcDbEntity
  8
标注
 62
     0
440
 16777216
100
AcDbTrace
 10
1100.693953123907
 20
813.8559006643001
 30
0.0
 11
1100.693953123907
 21
811.1892339976332
 31
0.0
 12
1108.693953123907
 22
812.5225673309667
 32
0.0
 13
1108.693953123907
 23
812.5225673309667
 33
0.0
  0
SOLID
  5
3E80
330
3CD2
100
AcDbEntity
  8
标注
 62
     0
440
 16777216
100
AcDbTrace
 10
379.3939530682859
 20
813.8559006643001
 30
0.0
 11
379.3939530682859
 21
811.1892339976332
 31
0.0
 12
371.393953068286
 22
812.5225673309667
 32
0.0
 13
371.393953068286
 23
812.5225673309667
 33
0.0
  0
MTEXT
  5
3E81
330
3CD2
100
AcDbEntity
  8
标注
 62
     0
440
 16777216
100
AcDbMText
 10
747.4999999999981
 20
824.7763190362871
 30
0.0
 40
16.0
 41
0.0
 46
0.0
 71
     5
 72
     1
  1
{\fArial|b0|i0|c0|p34;737.3 [29]}
 73
     1
 44
1.0
1001
ACAD
1000
MTEXTBEGIN
1070
    73
1070
     1
1070
    44
1040
1.0
1070
    74
1070
     0
1000
MTEXTEND
  0
POINT
  5
3E82
330
3CD2
100
AcDbEntity
  8
Defpoints
 62
     0
440
 16777216
100
AcDbPoint
 10
1108.693953123907
 20
777.5
 30
0.0
  0
POINT
  5
3E83
330
3CD2
100
AcDbEntity
  8
Defpoints
 62
     0
440
 16777216
100
AcDbPoint
 10
371.393953068286
 20
787.5
 30
0.0
  0
POINT
  5
3E84
330
3CD2
100
AcDbEntity
  8
Defpoints
 62
     0
440
 16777216
100
AcDbPoint
 10
371.393953068286
 20
812.5225673309667
 30
0.0
  0
ENDBLK
  5
3CDD
330
3CD2
100
AcDbEntity
  8
0
100
AcDbBlockEnd
  0
BLOCK
  5
3CE8
330
3CDE
100
AcDbEntity
  8
0
100
AcDbBlockBegin
  2
*D8
 70
     1
 10
0.0
 20
0.0
 30
0.0
  3
*D8
  1

  0
LINE
  5
3E85
330
3CDE
100
AcDbEntity
  8
标注
 62
     0
440
 16777216
370
    -2
100
AcDbLine
 10
367.5
 20
765.5264225820274
 30
0.0
 11
317.4862295647664
 21
765.5264225820274
 31
0.0
  0
LINE
  5
3E86
330
3CDE
100
AcDbEntity
  8
标注
 62
     0
440
 16777216
370
    -2
100
AcDbLine
 10
367.5
 20
308.2264225820253
 30
0.0
 11
317.4862295647663
 21
308.2264225820253
 31
0.0
  0
LINE
  5
3E87
330
3CDE
100
AcDbEntity
  8
标注
 62
     0
440
 16777216
370
    -2
100
AcDbLine
 10
321.2362295647664
 20
757.5264225820274
 30
0.0
 11
321.2362295647663
 21
316.2264225820254
 31
0.0
  0
SOLID
  5
3E88
330
3CDE
100
AcDbEntity
  8
标注
 62
     0
440
 16777216
100
AcDbTrace
 10
319.9028962314331
 20
757.5264225820274
 30
0.0
 11
322.5695628980997
 21
757.5264225820274
 31
0.0
 12
321.2362295647664
 22
765.5264225820274
 32
0.0
 13
321.2362295647664
 23
765.5264225820274
 33
0.0
  0
SOLID
  5
3E89
330
3CDE
100
AcDbEntity
  8
标注
 62
     0
440
 16777216
100
AcDbTrace
 10
319.902896231433
 20
316.2264225820254
 30
0.0
 11
322.5695628980996
 21
316.2264225820254
 31
0.0
 12
321.2362295647663
 22
308.2264225820253
 32
0.0
 13
321.2362295647663
 23
308.2264225820253
 33
0.0
  0
MTEXT
  5
3E8A
330
3CDE
100
AcDbEntity
  8
标注
 62
     0
440
 16777216
100
AcDbMText
 10
308.9824778594457
 20
536.8300000000003
 30
0.0
 40
16.0
 41
0.0
 46
0.0
 71
     5
 72
     1
  1
{\fArial|b0|i0|c0|p34;457.3 [18]}
 11
0.0000000000000001
 21
1.0
 31
0.0
 73
     1
 44
1.0
1001
ACAD
1000
MTEXTBEGIN
1070
    73
1070
     1
1070
    44
1040
1.0
1070
    74
1070
     0
1000
MTEXTEND
  0
POINT
  5
3E8B
330
3CDE
100
AcDbEntity
  8
Defpoints
 62
     0
440
 16777216
100
AcDbPoint
 10
367.5
 20
765.5264225820274
 30
0.0
  0
POINT
  5
3E8C
330
3CDE
100
AcDbEntity
  8
Defpoints
 62
     0
440
 16777216
100
AcDbPoint
 10
367.5
 20
308.2264225820253
 30
0.0
  0
POINT
  5
3E8D
330
3CDE
100
AcDbEntity
  8
Defpoints
 62
     0
440
 16777216
100
AcDbPoint
 10
321.2362295647663
 20
308.2264225820253
 30
0.0
  0
ENDBLK
  5
3CE9
330
3CDE
100
AcDbEntity
  8
0
100
AcDbBlockEnd
  0
BLOCK
  5
40F9
330
40F8
100
AcDbEntity
  8
0
100
AcDbBlockBegin
  2
*D9
 70
     1
 10
0.0
 20
0.0
 30
0.0
  3
*D9
  1

  0
LINE
  5
40FA
330
40F8
100
AcDbEntity
  8
标注
 62
     0
440
 16777216
370
    -2
100
AcDbLine
 10
1115.043953068284
 20
504.8764237977372
 30
0.0
 11
1115.043953068284
 21
847.2725673309666
 31
0.0
  0
LINE
  5
40FB
330
40F8
100
AcDbEntity
  8
标注
 62
     0
440
 16777216
370
    -2
100
AcDbLine
 10
365.2750343645654
 20
499.6415682234206
 30
0.0
 11
365.2750343645654
 21
847.2725673309666
 31
0.0
  0
LINE
  5
40FC
330
40F8
100
AcDbEntity
  8
标注
 62
     0
440
 16777216
370
    -2
100
AcDbLine
 10
1107.043953068284
 20
843.5225673309666
 30
0.0
 11
373.2750343645654
 21
843.5225673309666
 31
0.0
  0
SOLID
  5
40FD
330
40F8
100
AcDbEntity
  8
标注
 62
     0
440
 16777216
100
AcDbTrace
 10
1107.043953068284
 20
844.8559006643
 30
0.0
 11
1107.043953068284
 21
842.1892339976333
 31
0.0
 12
1115.043953068284
 22
843.5225673309666
 32
0.0
 13
1115.043953068284
 23
843.5225673309666
 33
0.0
  0
SOLID
  5
40FE
330
40F8
100
AcDbEntity
  8
标注
 62
     0
440
 16777216
100
AcDbTrace
 10
373.2750343645654
 20
844.8559006643
 30
0.0
 11
373.2750343645654
 21
842.1892339976333
 31
0.0
 12
365.2750343645654
 22
843.5225673309666
 32
0.0
 13
365.2750343645654
 23
843.5225673309666
 33
0.0
  0
MTEXT
  5
40FF
330
40F8
100
AcDbEntity
  8
标注
 62
     0
440
 16777216
100
AcDbMText
 10
747.5000000000009
 20
855.8800025287839
 30
0.0
 40
16.0
 41
0.0
 46
0.0
 71
     5
 72
     1
  1
{\fArial|b0|i0|c0|p34;749.8 [29 1/2]}
 73
     1
 44
1.0
  0
POINT
  5
4100
330
40F8
100
AcDbEntity
  8
Defpoints
 62
     0
440
 16777216
100
AcDbPoint
 10
1115.043953068284
 20
504.8764237977372
 30
0.0
  0
POINT
  5
4101
330
40F8
100
AcDbEntity
  8
Defpoints
 62
     0
440
 16777216
100
AcDbPoint
 10
365.2750343645654
 20
499.6415682234206
 30
0.0
  0
POINT
  5
4102
330
40F8
100
AcDbEntity
  8
Defpoints
 62
     0
440
 16777216
100
AcDbPoint
 10
365.2750343645654
 20
843.5225673309666
 30
0.0
  0
ENDBLK
  5
4103
330
40F8
100
AcDbEntity
  8
0
100
AcDbBlockEnd
  0
BLOCK
  5
4105
330
4104
100
AcDbEntity
  8
0
100
AcDbBlockBegin
  2
*D10
 70
     1
 10
0.0
 20
0.0
 30
0.0
  3
*D10
  1

  0
LINE
  5
4106
330
4104
100
AcDbEntity
  8
标注
 62
     0
440
 16777216
370
    -2
100
AcDbLine
 10
589.0439709496754
 20
771.876422582025
 30
0.0
 11
289.4862295647661
 21
771.876422582025
 31
0.0
  0
LINE
  5
4107
330
4104
100
AcDbEntity
  8
标注
 62
     0
440
 16777216
370
    -2
100
AcDbLine
 10
589.0439530682853
 20
301.876422582027
 30
0.0
 11
289.4862295647662
 21
301.8764225820269
 31
0.0
  0
LINE
  5
4108
330
4104
100
AcDbEntity
  8
标注
 62
     0
440
 16777216
370
    -2
100
AcDbLine
 10
293.2362295647661
 20
763.8764225820249
 30
0.0
 11
293.2362295647662
 21
309.8764225820269
 31
0.0
  0
SOLID
  5
4109
330
4104
100
AcDbEntity
  8
标注
 62
     0
440
 16777216
100
AcDbTrace
 10
291.9028962314328
 20
763.8764225820249
 30
0.0
 11
294.5695628980995
 21
763.8764225820249
 31
0.0
 12
293.2362295647661
 22
771.876422582025
 32
0.0
 13
293.2362295647661
 23
771.876422582025
 33
0.0
  0
SOLID
  5
410A
330
4104
100
AcDbEntity
  8
标注
 62
     0
440
 16777216
100
AcDbTrace
 10
291.9028962314329
 20
309.8764225820269
 30
0.0
 11
294.5695628980995
 21
309.8764225820269
 31
0.0
 12
293.2362295647662
 22
301.8764225820269
 32
0.0
 13
293.2362295647662
 23
301.8764225820269
 33
0.0
  0
MTEXT
  5
410B
330
4104
100
AcDbEntity
  8
标注
 62
     0
440
 16777216
100
AcDbMText
 10
280.8787943669491
 20
536.6500000000009
 30
0.0
 40
16.0
 41
0.0
 46
0.0
 71
     5
 72
     1
  1
{\fArial|b0|i0|c0|p34;470 [18 1/2]}
 11
0.0000000000000001
 21
1.0
 31
0.0
 73
     1
 44
1.0
  0
POINT
  5
410C
330
4104
100
AcDbEntity
  8
Defpoints
 62
     0
440
 16777216
100
AcDbPoint
 10
589.0439709496754
 20
771.876422582025
 30
0.0
  0
POINT
  5
410D
330
4104
100
AcDbEntity
  8
Defpoints
 62
     0
440
 16777216
100
AcDbPoint
 10
589.0439530682853
 20
301.876422582027
 30
0.0
  0
POINT
  5
410E
330
4104
100
AcDbEntity
  8
Defpoints
 62
     0
440
 16777216
100
AcDbPoint
 10
293.2362295647662
 20
301.8764225820269
 30
0.0
  0
ENDBLK
  5
410F
330
4104
100
AcDbEntity
  8
0
100
AcDbBlockEnd
  0
BLOCK
  5
411E
330
411D
100
AcDbEntity
  8
0
100
AcDbBlockBegin
  2
*D12
 70
     1
 10
0.0
 20
0.0
 30
0.0
  3
*D12
  1

  0
LINE
  5
4147
330
411D
100
AcDbEntity
  8
标注
 62
     0
440
 16777216
370
    -2
100
AcDbLine
 10
1115.043953068284
 20
504.8764237977372
 30
0.0
 11
1115.043953068284
 21
847.2725673309666
 31
0.0
  0
LINE
  5
4148
330
411D
100
AcDbEntity
  8
标注
 62
     0
440
 16777216
370
    -2
100
AcDbLine
 10
365.2750343645654
 20
499.6415682234206
 30
0.0
 11
365.2750343645654
 21
847.2725673309666
 31
0.0
  0
LINE
  5
4149
330
411D
100
AcDbEntity
  8
标注
 62
     0
440
 16777216
370
    -2
100
AcDbLine
 10
1107.043953068284
 20
843.5225673309666
 30
0.0
 11
373.2750343645654
 21
843.5225673309666
 31
0.0
  0
SOLID
  5
414A
330
411D
100
AcDbEntity
  8
标注
 62
     0
440
 16777216
100
AcDbTrace
 10
1107.043953068284
 20
844.8559006643
 30
0.0
 11
1107.043953068284
 21
842.1892339976333
 31
0.0
 12
1115.043953068284
 22
843.5225673309666
 32
0.0
 13
1115.043953068284
 23
843.5225673309666
 33
0.0
  0
SOLID
  5
414B
330
411D
100
AcDbEntity
  8
标注
 62
     0
440
 16777216
100
AcDbTrace
 10
373.2750343645654
 20
844.8559006643
 30
0.0
 11
373.2750343645654
 21
842.1892339976333
 31
0.0
 12
365.2750343645654
 22
843.5225673309666
 32
0.0
 13
365.2750343645654
 23
843.5225673309666
 33
0.0
  0
MTEXT
  5
414C
330
411D
100
AcDbEntity
  8
标注
 62
     0
440
 16777216
100
AcDbMText
 10
747.5000000000009
 20
855.8800025287839
 30
0.0
 40
16.0
 41
0.0
 46
0.0
 71
     5
 72
     1
  1
{\fArial|b0|i0|c0|p34;749.8 [29 1/2]}
 73
     1
 44
1.0
  0
POINT
  5
414D
330
411D
100
AcDbEntity
  8
Defpoints
 62
     0
440
 16777216
100
AcDbPoint
 10
1115.043953068284
 20
504.8764237977372
 30
0.0
  0
POINT
  5
414E
330
411D
100
AcDbEntity
  8
Defpoints
 62
     0
440
 16777216
100
AcDbPoint
 10
365.2750343645654
 20
499.6415682234206
 30
0.0
  0
POINT
  5
414F
330
411D
100
AcDbEntity
  8
Defpoints
 62
     0
440
 16777216
100
AcDbPoint
 10
365.2750343645654
 20
843.5225673309666
 30
0.0
  0
ENDBLK
  5
411F
330
411D
100
AcDbEntity
  8
0
100
AcDbBlockEnd
  0
BLOCK
  5
412A
330
4129
100
AcDbEntity
  8
0
100
AcDbBlockBegin
  2
*D13
 70
     1
 10
0.0
 20
0.0
 30
0.0
  3
*D13
  1

  0
LINE
  5
4150
330
4129
100
AcDbEntity
  8
标注
 62
     0
440
 16777216
370
    -2
100
AcDbLine
 10
589.0439709496754
 20
771.876422582025
 30
0.0
 11
289.4862295647661
 21
771.876422582025
 31
0.0
  0
LINE
  5
4151
330
4129
100
AcDbEntity
  8
标注
 62
     0
440
 16777216
370
    -2
100
AcDbLine
 10
589.0439530682853
 20
301.876422582027
 30
0.0
 11
289.4862295647662
 21
301.8764225820269
 31
0.0
  0
LINE
  5
4152
330
4129
100
AcDbEntity
  8
标注
 62
     0
440
 16777216
370
    -2
100
AcDbLine
 10
293.2362295647661
 20
763.8764225820249
 30
0.0
 11
293.2362295647662
 21
309.8764225820269
 31
0.0
  0
SOLID
  5
4153
330
4129
100
AcDbEntity
  8
标注
 62
     0
440
 16777216
100
AcDbTrace
 10
291.9028962314328
 20
763.8764225820249
 30
0.0
 11
294.5695628980995
 21
763.8764225820249
 31
0.0
 12
293.2362295647661
 22
771.876422582025
 32
0.0
 13
293.2362295647661
 23
771.876422582025
 33
0.0
  0
SOLID
  5
4154
330
4129
100
AcDbEntity
  8
标注
 62
     0
440
 16777216
100
AcDbTrace
 10
291.9028962314329
 20
309.8764225820269
 30
0.0
 11
294.5695628980995
 21
309.8764225820269
 31
0.0
 12
293.2362295647662
 22
301.8764225820269
 32
0.0
 13
293.2362295647662
 23
301.8764225820269
 33
0.0
  0
MTEXT
  5
4155
330
4129
100
AcDbEntity
  8
标注
 62
     0
440
 16777216
100
AcDbMText
 10
280.8787943669491
 20
536.6500000000009
 30
0.0
 40
16.0
 41
0.0
 46
0.0
 71
     5
 72
     1
  1
{\fArial|b0|i0|c0|p34;470 [18 1/2]}
 11
0.0000000000000001
 21
1.0
 31
0.0
 73
     1
 44
1.0
  0
POINT
  5
4156
330
4129
100
AcDbEntity
  8
Defpoints
 62
     0
440
 16777216
100
AcDbPoint
 10
589.0439709496754
 20
771.876422582025
 30
0.0
  0
POINT
  5
4157
330
4129
100
AcDbEntity
  8
Defpoints
 62
     0
440
 16777216
100
AcDbPoint
 10
589.0439530682853
 20
301.876422582027
 30
0.0
  0
POINT
  5
4158
330
4129
100
AcDbEntity
  8
Defpoints
 62
     0
440
 16777216
100
AcDbPoint
 10
293.2362295647662
 20
301.8764225820269
 30
0.0
  0
ENDBLK
  5
412B
330
4129
100
AcDbEntity
  8
0
100
AcDbBlockEnd
  0
ENDSEC
  0
SECTION
  2
ENTITIES
  0
LINE
  5
3780
330
1F
100
AcDbEntity
  8
不可见
100
AcDbLine
 10
1326.355801320022
 20
934.2051151732198
 30
0.0
 11
1326.355801320022
 21
90.57469565813876
 31
0.0
  0
LINE
  5
3781
330
1F
100
AcDbEntity
  8
粗实线
100
AcDbLine
 10
1312.153269004954
 20
920.0025828581672
 30
0.0
 11
1312.153269004954
 21
104.7772279732067
 31
0.0
  0
LINE
  5
3782
330
1F
100
AcDbEntity
  8
不可见
100
AcDbLine
 10
1326.355801320022
 20
90.57469565813876
 30
0.0
 11
133.3430868542532
 21
90.57469565813876
 31
0.0
  0
LINE
  5
3783
330
1F
100
AcDbEntity
  8
粗实线
100
AcDbLine
 10
1312.153269004954
 20
104.7772279732067
 30
0.0
 11
204.3557484295843
 21
104.7772279732067
 31
0.0
  0
LINE
  5
3784
330
1F
100
AcDbEntity
  8
粗实线
100
AcDbLine
 10
1312.153269004954
 20
104.7772279732067
 30
0.0
 11
204.3557484295843
 21
104.7772279732067
 31
0.0
  0
LINE
  5
3788
330
1F
100
AcDbEntity
  8
不可见
100
AcDbLine
 10
133.3430868542532
 20
934.2051151732198
 30
0.0
 11
1326.355801320022
 21
934.2051151732198
 31
0.0
  0
LINE
  5
3789
330
1F
100
AcDbEntity
  8
粗实线
100
AcDbLine
 10
204.3557484295843
 20
920.0025828581486
 30
0.0
 11
1312.153269004954
 21
920.0025828581486
 31
0.0
  0
LINE
  5
378A
330
1F
100
AcDbEntity
  8
不可见
100
AcDbLine
 10
133.3430868542532
 20
90.57469565813876
 30
0.0
 11
133.3430868542532
 21
934.2051151732198
 31
0.0
  0
LINE
  5
378B
330
1F
100
AcDbEntity
  8
粗实线
100
AcDbLine
 10
204.3557484295843
 20
104.7772279732067
 30
0.0
 11
204.3557484295843
 21
920.0025828581486
 31
0.0
  0
LWPOLYLINE
  5
3B5D
330
1F
100
AcDbEntity
  8
虚线
 48
3.0
100
AcDbPolyline
 90
       15
 70
     0
 43
0.0
 10
1108.724243594537
 20
642.4234679643705
 42
0.3694296208365686
 10
1043.458157693756
 20
705.8637164148312
 42
0.0158655269025378
 10
980.0439530683288
 20
707.8764225820268
 10
792.7678311791751
 20
707.8764225820268
 42
-0.2061575227368402
 10
770.9723782167055
 20
717.261907546228
 42
0.1519702509036232
 10
693.2599313829196
 20
760.8948576782132
 42
0.1053731222139582
 10
484.8280097309689
 20
760.8948651323152
 42
0.3463545867129854
 10
366.1479952264854
 20
618.2584478706921
 42
0.0197738800363851
 10
369.0919542928823
 20
381.0829020695601
 42
0.3852360558781482
 10
445.1467488135167
 20
305.3294774120295
 42
0.0119966120562112
 10
589.0439530682852
 20
301.8764225820269
 10
980.0439530682995
 20
301.8764225820269
 42
0.0158655269025502
 10
1043.458157693763
 20
303.8891287492297
 42
0.3694296208365414
 10
1108.724243594537
 20
367.3293771996978
 42
0.0459458035760589
 10
1108.72424337158
 20
642.4234703855327
 42
21.76477332352224
  0
HATCH
  5
3B60
330
1F
100
AcDbEntity
  8
剖切线
100
AcDbHatch
 10
0.0
 20
0.0
 30
0.0
210
0.0
220
0.0
230
1.0
  2
ANSI37
 70
     0
 71
     0
 91
        2
 92
        7
 72
     0
 73
     1
 93
        6
 10
929.7957068348114
 20
613.8032253585333
 10
927.5493068348078
 20
613.8032253585333
 10
927.5493068348078
 20
590.0700730196478
 10
925.821306834805
 20
590.0700730196478
 10
925.821306834805
 20
588.3420730196449
 10
929.7957068348114
 20
588.3420730196449
 97
        0
 92
        7
 72
     0
 73
     1
 93
        6
 10
943.1013068348036
 20
613.8032253585333
 10
940.8549068348147
 20
613.8032253585333
 10
940.8549068348147
 20
588.3420730196449
 10
944.8293068348066
 20
588.3420730196449
 10
944.8293068348066
 20
590.0700730196478
 10
943.1013068348036
 20
590.0700730196478
 97
        0
 75
     0
 76
     1
 52
0.0
 41
0.3456000000000001
 77
     0
 78
     2
 53
45.0
 43
3094.154490923349
 44
-4042.833001453786
 45
-0.7758941288593633
 46
0.7758941288630014
 79
     0
 53
135.0
 43
3094.154490923349
 44
-4042.833001453786
 45
-0.7758941288593633
 46
-0.7758941288630014
 79
     0
 47
0.0875911827022286
 98
        2
 10
929.1035589560268
 20
605.6066689529034
 10
941.97866742561
 20
606.6661712590647
  0
HATCH
  5
3B61
330
1F
100
AcDbEntity
  8
剖切线
100
AcDbHatch
 10
0.0
 20
0.0
 30
0.0
210
0.0
220
0.0
230
1.0
  2
ANSI31
 70
     0
 71
     1
 91
        1
 92
        5
 93
        8
 72
     1
 10
927.5493068348078
 20
590.0700730196331
 11
927.5493068348078
 21
613.8032253585042
 72
     1
 10
927.5493068348078
 20
613.8032253585042
 11
943.1013068348113
 21
613.8032253585042
 72
     1
 10
943.1013068348113
 20
613.8032253585042
 11
943.1013068348113
 21
590.0700730196331
 72
     1
 10
943.1013068348113
 20
590.0700730196331
 11
986.8957766513997
 21
590.0700730196331
 72
     1
 10
986.8957766513997
 20
590.0700730196331
 11
986.8957766513997
 21
633.2700730196303
 72
     1
 10
986.8957766513997
 20
633.2700730196303
 11
860.1850117427384
 21
633.2700730196303
 72
     4
 94
        3
 73
     0
 74
     0
 95
       11
 96
        7
 40
0.0
 40
0.0
 40
0.0
 40
0.0
 40
12.6914133051571
 40
25.64182523175289
 40
37.49872691533479
 40
45.6707937178023
 40
45.6707937178023
 40
45.6707937178023
 40
45.6707937178023
 10
860.1850117427384
 20
633.2700730196303
 10
862.7209782546684
 20
629.3542564436181
 10
867.8446637362581
 20
621.4427116954136
 10
857.9217147918846
 20
609.6017896099576
 10
865.6718565974745
 20
598.5080759459828
 10
861.7749839628695
 20
592.5152287696996
 10
860.1850117427384
 20
590.0700730196331
 97
        5
 11
860.1850117427384
 21
633.2700730196303
 11
864.8754895467645
 21
621.4772196900812
 11
861.0101009286227
 21
609.117125034325
 11
863.5226398387821
 21
597.5294908599535
 11
860.1850117427384
 21
590.0700730196331
 12
0.0
 22
0.0
 13
0.0
 23
0.0
 72
     1
 10
860.1850117427382
 20
590.0700730196331
 11
927.5493068348078
 21
590.0700730196331
 97
        8
330
3B7D
330
3B73
330
3B64
330
3B67
330
3B66
330
3B93
330
3B62
330
3B7F
 75
     0
 76
     1
 52
0.0
 41
1.439999999999999
 77
     0
 78
     1
 53
44.9999999999263
 43
-13547.14483247767
 44
32830.2371815739
 45
-3.232892203584923
 46
3.232892203581286
 79
     0
 47
0.5147252568016311
 98
        1
 10
888.5545954124609
 20
603.2591906740052
  0
LINE
  5
3B62
102
{ACAD_REACTORS
330
3B61
102
}
330
1F
100
AcDbEntity
  8
粗实线
100
AcDbLine
 10
860.1850117427384
 20
590.0700730196331
 30
0.0
 11
927.5493068348078
 21
590.0700730196331
 31
0.0
  0
HATCH
  5
3B63
330
1F
100
AcDbEntity
  8
剖切线
100
AcDbHatch
 10
0.0
 20
0.0
 30
0.0
210
0.0
220
0.0
230
1.0
  2
ANSI31
 70
     0
 71
     0
 91
        1
 92
        7
 72
     1
 73
     1
 93
        9
 10
969.3250618283126
 20
590.0700730196331
 42
0.0
 10
966.7966276774896
 20
590.0700730196331
 42
0.0
 10
966.7966276774967
 20
588.4728730196366
 42
0.0
 10
991.6910031170408
 20
588.4700730196344
 42
-0.4014906669060269
 10
995.0877670704212
 20
585.2183789366753
 42
0.0
 10
997.3481567213383
 20
533.511135963774
 42
0.0
 10
998.9354521808854
 20
533.7728382639252
 42
0.0
 10
996.6862442249546
 20
585.2881699564603
 42
0.4014906669060269
 10
991.6910031170408
 20
590.0700730196331
 42
0.0
 97
        0
 75
     0
 76
     1
 52
90.0
 41
1.0
 77
     0
 78
     1
 53
135.0000000001474
 43
-20239.05682734735
 44
33997.65050332825
 45
-2.245064030266803
 46
-2.24506403027044
 79
     0
 47
0.1745883849316779
 98
        1
 10
983.4027694573524
 20
589.6677344849012
  0
LINE
  5
3B64
102
{ACAD_REACTORS
330
3B61
102
}
330
1F
100
AcDbEntity
  8
粗实线
100
AcDbLine
 10
943.1013068348113
 20
590.0700730196331
 30
0.0
 11
986.8957766513997
 21
590.0700730196331
 31
0.0
  0
LINE
  5
3B65
330
1F
100
AcDbEntity
  8
粗实线
100
AcDbLine
 10
940.8549068348147
 20
588.3420730196303
 30
0.0
 11
944.8293068348066
 21
588.3420730196303
 31
0.0
  0
LINE
  5
3B66
102
{ACAD_REACTORS
330
3B61
102
}
330
1F
100
AcDbEntity
  8
粗实线
100
AcDbLine
 10
860.1850117427384
 20
633.2700730196303
 30
0.0
 11
986.8957766513997
 21
633.2700730196303
 31
0.0
  0
LINE
  5
3B67
102
{ACAD_REACTORS
330
3B61
102
}
330
1F
100
AcDbEntity
  8
粗实线
100
AcDbLine
 10
986.8957766513997
 20
633.2700730196303
 30
0.0
 11
986.8957766513997
 21
590.0700730196331
 31
0.0
  0
HATCH
  5
3B68
330
1F
100
AcDbEntity
  8
剖切线
100
AcDbHatch
 10
0.0
 20
0.0
 30
0.0
210
0.0
220
0.0
230
1.0
  2
ANSI31
 70
     0
 71
     0
 91
        2
 92
        7
 72
     0
 73
     1
 93
        6
 10
925.7781068348119
 20
575.2478782375765
 10
925.778106834805
 20
568.3358782375943
 10
927.9813068348083
 20
568.3358782375943
 10
927.9813068348083
 20
570.4094782375976
 10
935.3253068348132
 20
570.4094782375976
 10
935.3253068348132
 20
575.2478782375765
 97
        0
 92
        7
 72
     0
 73
     1
 93
        6
 10
935.3253068348132
 20
575.2478782375765
 10
935.3253068348132
 20
570.4094782375976
 10
942.6693068348033
 20
570.4094782375976
 10
942.6693068348033
 20
568.3358782375943
 10
944.8725068348066
 20
568.3358782375943
 10
944.8725068348066
 20
575.2478782375765
 97
        0
 75
     0
 76
     1
 52
90.0
 41
0.864
 77
     0
 78
     1
 53
135.0
 43
5143.788622479013
 44
3523.055589132543
 45
-1.939735322150226
 46
-1.939735322150226
 79
     0
 47
0.1137768334985027
 98
        2
 10
928.7179039816036
 20
574.9720833566316
 10
938.3516173100581
 20
573.9883109955626
  0
LINE
  5
3B69
330
1F
100
AcDbEntity
  8
粗实线
 48
0.1
100
AcDbLine
 10
944.8725068348066
 20
568.3358782375652
 30
0.0
 11
925.778106834805
 21
568.3358782375652
 31
0.0
  0
LINE
  5
3B6A
330
1F
100
AcDbEntity
  8
粗实线
 48
0.1
100
AcDbLine
 10
942.6693068348102
 20
570.4094782375687
 30
0.0
 11
927.9813068348083
 21
570.4094782375687
 31
0.0
  0
LINE
  5
3B6B
330
1F
100
AcDbEntity
  8
粗实线
 48
0.1
100
AcDbLine
 10
944.8725068348066
 20
575.2478782375765
 30
0.0
 11
925.778106834805
 21
575.2478782375765
 31
0.0
  0
LINE
  5
3B6C
330
1F
100
AcDbEntity
  8
粗实线
 48
0.1
100
AcDbLine
 10
939.6453068348128
 20
613.2638782375652
 30
0.0
 11
931.0053068348061
 21
613.2638782375652
 31
0.0
  0
LINE
  5
3B6D
330
1F
100
AcDbEntity
  8
粗实线
 48
0.1
100
AcDbLine
 10
940.5093068348067
 20
612.3998782375783
 30
0.0
 11
930.141306834812
 21
612.3998782375783
 31
0.0
  0
LINE
  5
3B6E
330
1F
100
AcDbEntity
  8
中心线
 48
0.1
100
AcDbLine
 10
935.3253068348056
 20
616.2599104769832
 30
0.0
 11
935.3253068348056
 21
564.3712739471157
 31
0.0
  0
LINE
  5
3B6F
330
1F
100
AcDbEntity
  8
粗实线
 48
0.1
100
AcDbLine
 10
930.141306834812
 20
612.3998782375783
 30
0.0
 11
930.141306834812
 21
575.2478782375765
 31
0.0
  0
LINE
  5
3B70
330
1F
100
AcDbEntity
  8
细实线
 48
0.1
100
AcDbLine
 10
931.0053068348061
 20
613.2638782375652
 30
0.0
 11
931.0053068348061
 21
575.2478782375765
 31
0.0
  0
LINE
  5
3B71
330
1F
100
AcDbEntity
  8
粗实线
 48
0.1
100
AcDbLine
 10
940.5093068348067
 20
612.3998782375783
 30
0.0
 11
940.5093068348067
 21
575.2478782375765
 31
0.0
  0
LINE
  5
3B72
330
1F
100
AcDbEntity
  8
粗实线
 48
0.1
100
AcDbLine
 10
940.8549068348147
 20
613.8032253585042
 30
0.0
 11
940.8549068348147
 21
588.3420730196303
 31
0.0
  0
LINE
  5
3B73
102
{ACAD_REACTORS
330
3B61
102
}
330
1F
100
AcDbEntity
  8
粗实线
 48
0.1
100
AcDbLine
 10
943.1013068348113
 20
613.8032253585042
 30
0.0
 11
943.1013068348113
 21
590.0700730196331
 31
0.0
  0
LINE
  5
3B74
330
1F
100
AcDbEntity
  8
粗实线
 48
0.1
100
AcDbLine
 10
944.8293068348066
 20
590.0700730196331
 30
0.0
 11
944.8293068348066
 21
588.3420730196303
 31
0.0
  0
LINE
  5
3B75
330
1F
100
AcDbEntity
  8
细实线
 48
0.1
100
AcDbLine
 10
939.6453068348128
 20
613.2638782375652
 30
0.0
 11
939.6453068348128
 21
575.2478782375765
 31
0.0
  0
LINE
  5
3B76
330
1F
100
AcDbEntity
  8
粗实线
 48
0.1
100
AcDbLine
 10
927.9813068348083
 20
570.4094782375687
 30
0.0
 11
927.9813068348083
 21
568.3358782375652
 31
0.0
  0
LINE
  5
3B77
330
1F
100
AcDbEntity
  8
粗实线
 48
0.1
100
AcDbLine
 10
942.6693068348102
 20
570.4094782375687
 30
0.0
 11
942.6693068348102
 21
568.3358782375652
 31
0.0
  0
LINE
  5
3B78
330
1F
100
AcDbEntity
  8
粗实线
 48
0.1
100
AcDbLine
 10
925.778106834805
 20
575.2478782375765
 30
0.0
 11
925.778106834805
 21
568.3358782375652
 31
0.0
  0
LINE
  5
3B79
330
1F
100
AcDbEntity
  8
粗实线
 48
0.1
100
AcDbLine
 10
944.8725068348066
 20
575.2478782375765
 30
0.0
 11
944.8725068348066
 21
568.3358782375652
 31
0.0
  0
LINE
  5
3B7A
330
1F
100
AcDbEntity
  8
粗实线
 48
0.1
100
AcDbLine
 10
931.0053068348061
 20
613.2638782375652
 30
0.0
 11
930.141306834812
 21
612.3998782375783
 31
0.0
  0
LINE
  5
3B7B
330
1F
100
AcDbEntity
  8
粗实线
 48
0.1
100
AcDbLine
 10
939.6453068348128
 20
613.2638782375652
 30
0.0
 11
940.5093068348067
 21
612.3998782375783
 31
0.0
  0
LINE
  5
3B7C
330
1F
100
AcDbEntity
  8
粗实线
100
AcDbLine
 10
929.7957068348114
 20
588.3420730196303
 30
0.0
 11
925.821306834805
 21
588.3420730196303
 31
0.0
  0
LINE
  5
3B7D
102
{ACAD_REACTORS
330
3B61
102
}
330
1F
100
AcDbEntity
  8
粗实线
 48
0.1
100
AcDbLine
 10
927.5493068348078
 20
613.8032253585042
 30
0.0
 11
943.1013068348113
 21
613.8032253585042
 31
0.0
  0
LINE
  5
3B7E
330
1F
100
AcDbEntity
  8
粗实线
 48
0.1
100
AcDbLine
 10
929.7957068348114
 20
613.8032253585042
 30
0.0
 11
929.7957068348114
 21
588.3420730196303
 31
0.0
  0
LINE
  5
3B7F
102
{ACAD_REACTORS
330
3B61
102
}
330
1F
100
AcDbEntity
  8
粗实线
 48
0.1
100
AcDbLine
 10
927.5493068348078
 20
613.8032253585042
 30
0.0
 11
927.5493068348078
 21
590.0700730196331
 31
0.0
  0
LINE
  5
3B80
330
1F
100
AcDbEntity
  8
粗实线
 48
0.1
100
AcDbLine
 10
925.821306834805
 20
590.0700730196331
 30
0.0
 11
925.821306834805
 21
588.3420730196303
 31
0.0
  0
LINE
  5
3B81
330
1F
100
AcDbEntity
  8
中心线
 48
0.1
100
AcDbLine
 10
935.3253068348056
 20
565.3337582742023
 30
0.0
 11
935.3253068348056
 21
598.8080088358327
 31
0.0
  0
HATCH
  5
3B82
330
1F
100
AcDbEntity
  8
剖切线
100
AcDbHatch
 10
0.0
 20
0.0
 30
0.0
210
0.0
220
0.0
230
1.0
  2
ANSI31
 70
     0
 71
     0
 91
        1
 92
        7
 72
     1
 73
     1
 93
        8
 10
903.3757048272599
 20
580.135966757276
 42
-0.3003703345698272
 10
897.3374987310016
 20
584.7797326498183
 42
0.0
 10
895.6202315462649
 20
589.7670386876198
 42
0.0
 10
892.3525193489986
 20
588.6418751458186
 42
0.0
 10
894.0697865337279
 20
583.6545691080317
 42
0.3003703345697881
 10
903.1270956781154
 20
576.6889202692036
 42
0.0070565129482686
 10
919.7792474117376
 20
575.7239339098522
 42
0.0
 10
919.8395839470975
 20
579.1806117052982
 42
-0.0070177978545288
 97
        0
 75
     0
 76
     1
 52
-0.9999999998692691
 41
0.864
 77
     0
 78
     1
 53
43.99999999980777
 43
3810.972324452829
 44
-3850.17379708535
 45
-1.905586841843613
 46
1.973292940288956
 79
     0
 47
0.1104702278856199
 98
        1
 10
909.8017609410234
 20
579.0822158474692
  0
LINE
  5
3B83
330
1F
100
AcDbEntity
  8
粗实线
100
AcDbLine
 10
919.7792474117376
 20
575.7239339098377
 30
0.0
 11
919.8395839470903
 21
579.1806117052836
 31
0.0
  0
LINE
  5
3B84
330
1F
100
AcDbEntity
  8
粗实线
100
AcDbLine
 10
950.8785101218816
 20
575.1810942600203
 30
0.0
 11
950.9388466572342
 21
578.6377720554663
 31
0.0
  0
ARC
  5
3B85
330
1F
100
AcDbEntity
  8
粗实线
100
AcDbCircle
 10
945.6392601814878
 20
1166.133869730322
 30
0.0
 40
587.5199999999998
100
AcDbArc
 50
265.8748354479636
 51
268.4884423860381
  0
ARC
  5
3B86
330
1F
100
AcDbEntity
  8
粗实线
100
AcDbCircle
 10
945.6392601814878
 20
1166.133869730322
 30
0.0
 40
587.5199999999998
100
AcDbArc
 50
269.4997133534758
 51
272.0817910569185
  0
ARC
  5
3B87
330
1F
100
AcDbEntity
  8
粗实线
100
AcDbCircle
 10
903.872923125542
 20
587.0300597334062
 30
0.0
 40
6.912
100
AcDbArc
 50
198.9999999997986
 51
265.8748354479636
  0
ARC
  5
3B88
330
1F
100
AcDbEntity
  8
粗实线
100
AcDbCircle
 10
903.872923125542
 20
587.0300597334062
 30
0.0
 40
10.368
100
AcDbArc
 50
198.9999999997986
 51
265.8748354479636
  0
ARC
  5
3B89
330
1F
100
AcDbEntity
  8
粗实线
100
AcDbCircle
 10
945.6392601814878
 20
1166.133869730322
 30
0.0
 40
590.976
100
AcDbArc
 50
265.8748354479636
 51
272.0817910569185
  0
LINE
  5
3B8A
330
1F
100
AcDbEntity
  8
粗实线
100
AcDbLine
 10
895.6202315462649
 20
589.7670386876052
 30
0.0
 11
897.3374987310016
 21
584.7797326498038
 31
0.0
  0
LINE
  5
3B8B
330
1F
100
AcDbEntity
  8
粗实线
100
AcDbLine
 10
892.3525193489911
 20
588.6418751457893
 30
0.0
 11
894.0697865337279
 21
583.6545691080027
 31
0.0
  0
LINE
  5
3B8C
330
1F
100
AcDbEntity
  8
粗实线
100
AcDbLine
 10
892.3525193489911
 20
588.6418751457893
 30
0.0
 11
895.6202315462649
 21
589.7670386876052
 31
0.0
  0
ARC
  5
3B8D
330
1F
100
AcDbEntity
  8
粗实线
100
AcDbCircle
 10
967.169722805993
 20
585.9252099852382
 30
0.0
 40
6.912
100
AcDbArc
 50
272.1251645519265
 51
339.0000000002046
  0
ARC
  5
3B8E
330
1F
100
AcDbEntity
  8
粗实线
100
AcDbCircle
 10
967.169722805993
 20
585.9252099852382
 30
0.0
 40
10.368
100
AcDbArc
 50
272.1251645523437
 51
339.0000000002046
  0
LINE
  5
3B8F
330
1F
100
AcDbEntity
  8
粗实线
100
AcDbLine
 10
975.512906256532
 20
588.3725068632411
 30
0.0
 11
973.6226307139439
 21
583.4481707179874
 31
0.0
  0
LINE
  5
3B90
330
1F
100
AcDbEntity
  8
粗实线
100
AcDbLine
 10
978.7393602105076
 20
587.1339872296013
 30
0.0
 11
976.8490846679197
 21
582.209651084362
 31
0.0
  0
LINE
  5
3B91
330
1F
100
AcDbEntity
  8
粗实线
100
AcDbLine
 10
978.7393602105076
 20
587.1339872296013
 30
0.0
 11
975.512906256532
 21
588.3725068632411
 31
0.0
  0
HATCH
  5
3B92
330
1F
100
AcDbEntity
  8
剖切线
100
AcDbHatch
 10
0.0
 20
0.0
 30
0.0
210
0.0
220
0.0
230
1.0
  2
ANSI31
 70
     0
 71
     0
 91
        1
 92
        7
 72
     1
 73
     1
 93
        8
 10
950.9388466572417
 20
578.6377720554663
 42
0.0070177978545289
 10
967.4260378372419
 20
579.0179640359054
 42
0.3003703345697906
 10
973.6226307139514
 20
583.4481707179874
 42
0.0
 10
975.512906256532
 20
588.3725068632555
 42
0.0
 10
978.7393602105076
 20
587.1339872296157
 42
0.0
 10
976.8490846679124
 20
582.2096510843765
 42
-0.3003703345697732
 10
967.5541953528663
 20
575.5643410612463
 42
-0.0070565129482688
 10
950.8785101218816
 20
575.1810942600059
 42
0.0
 97
        0
 75
     0
 76
     1
 52
-0.9999999998692691
 41
0.864
 77
     0
 78
     1
 53
43.99999999980777
 43
3810.972324452829
 44
-3850.17379708535
 45
-1.905586841843613
 46
1.973292940288956
 79
     0
 47
0.1104702278856199
 98
        1
 10
960.9671209268345
 20
578.1891211668335
  0
SPLINE
  5
3B93
102
{ACAD_REACTORS
330
3B61
102
}
330
1F
100
AcDbEntity
  8
细实线
100
AcDbSpline
210
0.0
220
0.0
230
1.0
 70
  1064
 71
     3
 72
    11
 73
     7
 74
     5
 42
0.000000001
 43
0.0000000001
 44
0.0000000001
 40
0.0
 40
0.0
 40
0.0
 40
0.0
 40
12.6914133051571
 40
25.64182523175289
 40
37.49872691533479
 40
45.6707937178023
 40
45.6707937178023
 40
45.6707937178023
 40
45.6707937178023
 10
860.1850117427384
 20
633.2700730196303
 30
0.0
 10
862.7209782546684
 20
629.3542564436181
 30
0.0
 10
867.8446637362581
 20
621.4427116954136
 30
0.0
 10
857.9217147918846
 20
609.6017896099576
 30
0.0
 10
865.6718565974745
 20
598.5080759459828
 30
0.0
 10
861.7749839628695
 20
592.5152287696996
 30
0.0
 10
860.1850117427384
 20
590.0700730196331
 30
0.0
 11
860.1850117427384
 21
633.2700730196303
 31
0.0
 11
864.8754895467645
 21
621.4772196900812
 31
0.0
 11
861.0101009286227
 21
609.117125034325
 31
0.0
 11
863.5226398387821
 21
597.5294908599535
 31
0.0
 11
860.1850117427384
 21
590.0700730196331
 31
0.0
  0
LINE
  5
3B94
330
1F
100
AcDbEntity
  8
粗实线
 62
     0
100
AcDbLine
 10
998.9354521808927
 20
533.7728382639252
 30
0.0
 11
996.6862442249546
 21
585.2881699564603
 31
0.0
  0
LINE
  5
3B95
330
1F
100
AcDbEntity
  8
粗实线
 62
     0
100
AcDbLine
 10
997.3481567213383
 20
533.511135963774
 30
0.0
 11
995.0877670704212
 21
585.2183789366753
 31
0.0
  0
LINE
  5
3B96
330
1F
100
AcDbEntity
  8
粗实线
 62
     0
100
AcDbLine
 10
969.3250618283126
 20
590.0700730196331
 30
0.0
 11
991.6910031170408
 21
590.0700730196331
 31
0.0
  0
ARC
  5
3B97
330
1F
100
AcDbEntity
  8
粗实线
 62
     0
100
AcDbCircle
 10
991.6910031170408
 20
585.0700730196331
 30
0.0
 40
5.0
100
AcDbArc
 50
2.50000000017795
 51
90.0
  0
ARC
  5
3B98
330
1F
100
AcDbEntity
  8
粗实线
 62
     0
100
AcDbCircle
 10
991.6910031170408
 20
585.0700730196331
 30
0.0
 40
3.399999999999999
100
AcDbArc
 50
2.50000000017795
 51
90.0
  0
LINE
  5
3B99
330
1F
100
AcDbEntity
  8
粗实线
 62
     0
100
AcDbLine
 10
966.7966276774896
 20
588.4728730196439
 30
0.0
 11
991.6910031170408
 21
588.4700730196344
 31
0.0
  0
LINE
  5
3B9A
330
1F
100
AcDbEntity
  8
粗实线
 62
     0
100
AcDbLine
 10
991.6910031170408
 20
590.0700730196331
 30
0.0
 11
1014.719620728538
 21
590.0700730196331
 31
0.0
  0
LINE
  5
3B9B
330
1F
100
AcDbEntity
  8
粗实线
100
AcDbLine
 10
966.7966276774896
 20
590.0700730196331
 30
0.0
 11
966.7966276774896
 21
588.4728730196439
 31
0.0
  0
LINE
  5
3B9C
330
1F
100
AcDbEntity
  8
粗实线
100
AcDbLine
 10
995.0877670704212
 20
588.7391321149626
 30
0.0
 11
1024.001345894423
 21
615.3272057192663
 31
0.0
  0
LINE
  5
3B9D
330
1F
100
AcDbEntity
  8
粗实线
100
AcDbLine
 10
1024.001345894423
 20
615.3272057192663
 30
0.0
 11
1026.148172182635
 21
615.3272057192663
 31
0.0
  0
LINE
  5
3B9E
330
1F
100
AcDbEntity
  8
粗实线
100
AcDbLine
 10
923.5403941970727
 20
633.2700730196303
 30
0.0
 11
910.0663579922839
 21
648.8286300288891
 31
0.0
  0
LINE
  5
3B9F
330
1F
100
AcDbEntity
  8
粗实线
100
AcDbLine
 10
910.0663579922839
 20
648.8286300288891
 30
0.0
 11
905.5755791533741
 21
648.8286300288891
 31
0.0
  0
LINE
  5
3BA0
330
1F
100
AcDbEntity
  8
粗实线
100
AcDbLine
 10
903.1270956783265
 20
576.6889202691744
 30
0.0
 11
890.0246521971201
 21
559.7351081064333
 31
0.0
  0
LINE
  5
3BA1
330
1F
100
AcDbEntity
  8
粗实线
100
AcDbLine
 10
890.0246521971201
 20
559.7351081064333
 30
0.0
 11
883.9390986168071
 21
559.7351081064333
 31
0.0
  0
LINE
  5
3BA2
330
1F
100
AcDbEntity
  8
粗实线
100
AcDbLine
 10
926.5842310141596
 20
569.1162805068816
 30
0.0
 11
927.8376663870655
 21
543.9329753862693
 31
0.0
  0
LINE
  5
3BA3
330
1F
100
AcDbEntity
  8
粗实线
100
AcDbLine
 10
931.2076801238507
 20
543.9329753862693
 30
0.0
 11
927.8376663870655
 21
543.9329753862693
 31
0.0
  0
MTEXT
  5
3BA4
330
1F
100
AcDbEntity
  8
粗实线
100
AcDbMText
 10
1028.878375720931
 20
620.8853168370843
 30
0.0
 40
8.0
 41
830.7084505341753
 46
0.0
 71
     1
 72
     5
  1
{\fTahoma|b0|i0|c0|p34;SINK}
 73
     1
 44
1.0
1001
ACAD
1000
MTEXTBEGIN
1070
    73
1070
     1
1070
    44
1040
1.0
1070
    74
1070
     0
1000
MTEXTEND
  0
MTEXT
  5
3BA5
330
1F
100
AcDbEntity
  8
粗实线
100
AcDbMText
 10
834.4315825595403
 20
654.2397114912746
 30
0.0
 40
8.0
 41
830.7084505341753
 46
0.0
 71
     1
 72
     5
  1
{\fTahoma|b0|i0|c0|p34;COUNTERTOP}
 73
     1
 44
1.0
1001
ACAD
1000
MTEXTBEGIN
1070
    73
1070
     1
1070
    44
1040
1.0
1070
    74
1070
     0
1000
MTEXTEND
  0
MTEXT
  5
3BA6
330
1F
100
AcDbEntity
  8
粗实线
100
AcDbMText
 10
829.7850825725035
 20
563.9489060382548
 30
0.0
 40
8.0
 41
830.7084505341753
 46
0.0
 71
     1
 72
     5
  1
{\fTahoma|b0|i0|c0|p34;FASTENER}
 73
     1
 44
1.0
1001
ACAD
1000
MTEXTBEGIN
1070
    73
1070
     1
1070
    44
1040
1.0
1070
    74
1070
     0
1000
MTEXTEND
  0
MTEXT
  5
3BA7
330
1F
100
AcDbEntity
  8
粗实线
100
AcDbMText
 10
932.759169074532
 20
549.1636180522617
 30
0.0
 40
8.0
 41
830.7084505341753
 46
0.0
 71
     1
 72
     5
  1
{\fTahoma|b0|i0|c0|p34;SCREWS}
 73
     1
 44
1.0
1001
ACAD
1000
MTEXTBEGIN
1070
    73
1070
     1
1070
    44
1040
1.0
1070
    74
1070
     0
1000
MTEXTEND
  0
SOLID
  5
3BA8
330
1F
100
AcDbEntity
  8
粗实线
100
AcDbTrace
 10
547.5403675006965
 20
311.0699118690973
 30
0.0
 11
549.5439530682997
 21
302.3764225820269
 31
0.0
 12
544.8291593842221
 22
309.9501819938159
 32
0.0
 13
544.8291593842221
 23
309.9501819938159
 33
0.0
1001
ACAD
1000
DSTYLE
1002
{
1070
    41
1040
8.0
1070
   147
1040
3.0
1070
    77
1070
     0
1002
}
  0
MTEXT
  5
3BA9
330
1F
100
AcDbEntity
  8
粗实线
100
AcDbMText
 10
486.2237986172257
 20
342.5453893854938
 30
0.0
 40
8.0
 41
306.8846549670925
 46
0.0
 71
     1
 72
     5
  1
{\fTahoma|b0|i0|c0|p34;Use this line for FLUSH MOUNT CUT.}
  7
样式 8
 73
     1
 44
1.0
1001
ACAD
1000
MTEXTBEGIN
1070
    73
1070
     1
1070
    44
1040
1.0
1070
    74
1070
     0
1000
MTEXTEND
  0
LINE
  5
3BAA
330
1F
100
AcDbEntity
  8
0
100
AcDbLine
 10
546.4901443175331
 20
309.7706265360539
 30
0.0
 11
537.9629255739855
 21
330.4176282628396
 31
0.0
  0
MTEXT
  5
3BAB
102
{ACAD_XDICTIONARY
360
4078
102
}
330
1F
100
AcDbEntity
  8
粗实线
100
AcDbMText
 10
420.7751204505694
 20
579.2486269355067
 30
0.0
 40
10.0
 41
830.7084505341753
 46
0.0
 71
     1
 72
     5
  1
\fArial|b0|i0|c0|p34;Use outside line for reveal mount cut:\PSink rim is ¼” revealed from the countertop opening.
 73
     1
 44
1.0
1001
ACAD
1000
MTEXTBEGIN
1070
    73
1070
     1
1070
    44
1040
1.0
1070
    74
1070
     0
1000
MTEXTEND
  0
MTEXT
  5
3BAC
330
1F
100
AcDbEntity
  8
粗实线
100
AcDbMText
 10
420.7751204505694
 20
529.3191511869954
 30
0.0
 40
10.0
 41
830.7084505341753
 46
0.0
 71
     1
 72
     5
  1
\fArial|b0|i0|c0|p34;Use middle line for flush mount cut:\PSink wall is flush to the edge of countertop opening.
 73
     1
 44
1.0
1001
ACAD
1000
MTEXTBEGIN
1070
    73
1070
     1
1070
    44
1040
1.0
1070
    74
1070
     0
1000
MTEXTEND
  0
MTEXT
  5
3BAD
102
{ACAD_XDICTIONARY
360
407A
102
}
330
1F
100
AcDbEntity
  8
粗实线
100
AcDbMText
 10
420.7751204505694
 20
475.8023367929999
 30
0.0
 40
10.0
 41
830.7084505341753
 46
0.0
 71
     1
 72
     5
  1
\fArial|b0|i0|c0|p34;Use inside line for negative reveal mount cut:\PSink wall is covered ¼” inside the edge of countertop opening.
 73
     1
 44
1.0
1001
ACAD
1000
MTEXTBEGIN
1070
    73
1070
     1
1070
    44
1040
1.0
1070
    74
1070
     0
1000
MTEXTEND
  0
MTEXT
  5
3BAE
330
1F
100
AcDbEntity
  8
粗实线
100
AcDbMText
 10
420.7751204505694
 20
421.7055435647997
 30
0.0
 40
10.0
 41
830.7084505341753
 46
0.0
 71
     1
 72
     5
  1
\fArial|b0|i0|c0|p34;Please check actual template against physical sink unit for most accurate cut.
 73
     1
 44
1.0
1001
ACAD
1000
MTEXTBEGIN
1070
    73
1070
     1
1070
    44
1040
1.0
1070
    74
1070
     0
1000
MTEXTEND
  0
DIMENSION
  5
4119
330
1F
100
AcDbEntity
  8
标注
100
AcDbDimension
280
     0
  2
*D12
 10
365.2750343645654
 20
843.5225673309666
 30
0.0
 11
747.5000000000009
 21
843.5225673309666
 31
0.0
 70
   160
  1
{\fArial|b0|i0|c0|p34;<>}
 71
     5
 42
749.7689187037186
 73
     0
 74
     0
 75
     0
  3
英寸
100
AcDbAlignedDimension
 13
1115.043953068284
 23
504.8764237977372
 33
0.0
 14
365.2750343645654
 24
499.6415682234206
 34
0.0
100
AcDbRotatedDimension
1001
ACAD
1000
DSTYLE
1002
{
1070
    41
1040
8.0
1002
}
  0
DIMENSION
  5
411A
330
1F
100
AcDbEntity
  8
标注
100
AcDbDimension
280
     0
  2
*D13
 10
293.2362295647662
 20
301.8764225820269
 30
0.0
 11
293.2362295647663
 21
536.6500000000009
 31
0.0
 70
   160
  1
{\fArial|b0|i0|c0|p34;<>}
 71
     5
 42
469.9999999999978
 73
     0
 74
     0
 75
     0
  3
英寸
100
AcDbAlignedDimension
 13
589.0439709496752
 23
771.8764225820246
 33
0.0
 14
589.0439530682852
 24
301.8764225820269
 34
0.0
 50
90.0
100
AcDbRotatedDimension
1001
ACAD
1000
DSTYLE
1002
{
1070
    41
1040
8.0
1002
}
  0
TEXT
  5
411B
330
1F
100
AcDbEntity
  8
0
 62
     7
100
AcDbText
 10
732.9999998398225
 20
327.5000011279037
 30
0.0
 40
17.49958061018237
  1
T-7030 Flush Cutout
100
AcDbText
  0
ENDSEC
  0
SECTION
  2
OBJECTS
  0
DICTIONARY
  5
C
330
0
100
AcDbDictionary
281
     1
  3
ACAD_CIP_PREVIOUS_PRODUCT_INFO
350
40A7
  3
ACAD_COLOR
350
3513
  3
ACAD_DETAILVIEWSTYLE
350
409E
  3
ACAD_GROUP
350
D
  3
ACAD_LAYOUT
350
1A
  3
ACAD_MATERIAL
350
350F
  3
ACAD_MLEADERSTYLE
350
409A
  3
ACAD_MLINESTYLE
350
17
  3
ACAD_PLOTSETTINGS
350
19
  3
ACAD_PLOTSTYLENAME
350
E
  3
ACAD_SCALELIST
350
4088
  3
ACAD_SECTIONVIEWSTYLE
350
409C
  3
ACAD_TABLESTYLE
350
E9
  3
ACAD_VISUALSTYLE
350
28
  3
ACDB_RECOMPOSE_DATA
350
418F
  3
AcDbVariableDictionary
350
366A
  0
DICTIONARY
  5
36E2
330
2
100
AcDbDictionary
280
     1
281
     1
  3
ACAD_LAYERSTATES
360
36E3
  0
DICTIONARY
  5
4161
330
10
100
AcDbDictionary
280
     1
281
     1
  3
ADSK_XREC_LAYER_RECONCILED
360
4162
  0
DICTIONARY
  5
4163
330
5C
100
AcDbDictionary
280
     1
281
     1
  3
ADSK_XREC_LAYER_RECONCILED
360
4164
  0
DICTIONARY
  5
4165
330
5D
100
AcDbDictionary
280
     1
281
     1
  3
ADSK_XREC_LAYER_RECONCILED
360
4166
  0
DICTIONARY
  5
4167
330
5E
100
AcDbDictionary
280
     1
281
     1
  3
ADSK_XREC_LAYER_RECONCILED
360
4168
  0
DICTIONARY
  5
4169
330
118
100
AcDbDictionary
280
     1
281
     1
  3
ADSK_XREC_LAYER_RECONCILED
360
416A
  0
DICTIONARY
  5
416B
330
193
100
AcDbDictionary
280
     1
281
     1
  3
ADSK_XREC_LAYER_RECONCILED
360
416C
  0
DICTIONARY
  5
416D
330
357
100
AcDbDictionary
280
     1
281
     1
  3
ADSK_XREC_LAYER_RECONCILED
360
416E
  0
DICTIONARY
  5
416F
330
358
100
AcDbDictionary
280
     1
281
     1
  3
ADSK_XREC_LAYER_RECONCILED
360
4170
  0
DICTIONARY
  5
4171
330
4E7
100
AcDbDictionary
280
     1
281
     1
  3
ADSK_XREC_LAYER_RECONCILED
360
4172
  0
DICTIONARY
  5
4173
330
4E8
100
AcDbDictionary
280
     1
281
     1
  3
ADSK_XREC_LAYER_RECONCILED
360
4174
  0
DICTIONARY
  5
4175
330
4E9
100
AcDbDictionary
280
     1
281
     1
  3
ADSK_XREC_LAYER_RECONCILED
360
4176
  0
DICTIONARY
  5
4177
330
4EA
100
AcDbDictionary
280
     1
281
     1
  3
ADSK_XREC_LAYER_RECONCILED
360
4178
  0
DICTIONARY
  5
4179
330
4EB
100
AcDbDictionary
280
     1
281
     1
  3
ADSK_XREC_LAYER_RECONCILED
360
417A
  0
DICTIONARY
  5
417B
330
112F
100
AcDbDictionary
280
     1
281
     1
  3
ADSK_XREC_LAYER_RECONCILED
360
417C
  0
DICTIONARY
  5
417D
330
121D
100
AcDbDictionary
280
     1
281
     1
  3
ADSK_XREC_LAYER_RECONCILED
360
417E
  0
DICTIONARY
  5
417F
330
121E
100
AcDbDictionary
280
     1
281
     1
  3
ADSK_XREC_LAYER_RECONCILED
360
4180
  0
DICTIONARY
  5
4078
330
3BAB
100
AcDbDictionary
280
     1
281
     1
  0
DICTIONARY
  5
407A
330
3BAD
100
AcDbDictionary
280
     1
281
     1
  0
XRECORD
  5
40A7
102
{ACAD_REACTORS
330
C
102
}
330
C
100
AcDbXrecord
280
     1
300
ACD
300
2017
300
ACD_F_S
  0
DICTIONARY
  5
3513
102
{ACAD_REACTORS
330
C
102
}
330
C
100
AcDbDictionary
281
     1
  0
DICTIONARY
  5
409E
102
{ACAD_REACTORS
330
C
102
}
330
C
100
AcDbDictionary
281
     1
  3
Imperial24
350
409F
  0
DICTIONARY
  5
D
102
{ACAD_REACTORS
330
C
102
}
330
C
100
AcDbDictionary
281
     1
  0
DICTIONARY
  5
1A
102
{ACAD_REACTORS
330
C
102
}
330
C
100
AcDbDictionary
281
     1
  3
Layout1
350
1E
  3
Layout2
350
24
  3
Model
350
22
  0
DICTIONARY
  5
350F
102
{ACAD_REACTORS
330
C
102
}
330
C
100
AcDbDictionary
281
     1
  3
ByBlock
350
3511
  3
ByLayer
350
3510
  3
Global
350
3512
  0
DICTIONARY
  5
409A
102
{ACAD_REACTORS
330
C
102
}
330
C
100
AcDbDictionary
281
     1
  3
Standard
350
409B
  0
DICTIONARY
  5
17
102
{ACAD_REACTORS
330
C
102
}
330
C
100
AcDbDictionary
281
     1
  3
Standard
350
18
  0
DICTIONARY
  5
19
102
{ACAD_REACTORS
330
C
102
}
330
C
100
AcDbDictionary
281
     1
  0
ACDBDICTIONARYWDFLT
  5
E
102
{ACAD_REACTORS
330
C
102
}
330
C
100
AcDbDictionary
281
     1
  3
Normal
350
F
100
AcDbDictionaryWithDefault
340
F
  0
DICTIONARY
  5
4088
102
{ACAD_REACTORS
330
C
102
}
330
C
100
AcDbDictionary
281
     1
  3
A0
350
4089
  3
A1
350
408A
  3
A2
350
408B
  3
A3
350
408C
  3
A4
350
408D
  3
A5
350
408E
  3
A6
350
408F
  3
A7
350
4090
  3
A8
350
4091
  3
A9
350
4092
  3
B0
350
4093
  3
B1
350
4094
  3
B2
350
4095
  3
B3
350
4096
  3
B4
350
4097
  3
B5
350
4098
  3
B6
350
4099
  0
DICTIONARY
  5
409C
102
{ACAD_REACTORS
330
C
102
}
330
C
100
AcDbDictionary
281
     1
  3
Imperial24
350
409D
  0
DICTIONARY
  5
E9
102
{ACAD_REACTORS
330
C
102
}
330
C
100
AcDbDictionary
281
     1
  3
Standard
350
3514
  0
DICTIONARY
  5
28
102
{ACAD_REACTORS
330
C
102
}
330
C
100
AcDbDictionary
281
     1
  3
2dWireframe
350
2D
  3
3D Hidden
350
2F
  3
3dWireframe
350
2E
  3
Basic
350
30
  3
Brighten
350
34
  3
ColorChange
350
38
  3
Conceptual
350
32
  3
Dim
350
33
  3
EdgeColorOff
350
4087
  3
Facepattern
350
37
  3
Flat
350
29
  3
FlatWithEdges
350
2A
  3
Gouraud
350
2B
  3
GouraudWithEdges
350
2C
  3
Hidden
350
407F
  3
JitterOff
350
4085
  3
Linepattern
350
36
  3
OverhangOff
350
4086
  3
Realistic
350
31
  3
Shaded
350
4084
  3
Shaded with edges
350
4083
  3
Shades of Gray
350
4080
  3
Sketchy
350
4081
  3
Thicken
350
35
  3
Wireframe
350
407E
  3
X-Ray
350
4082
  0
XRECORD
  5
418F
102
{ACAD_REACTORS
330
C
102
}
330
C
100
AcDbXrecord
280
     1
 90
        1
330
3514
330
409D
330
409F
  0
DICTIONARY
  5
366A
102
{ACAD_REACTORS
330
C
102
}
330
C
100
AcDbDictionary
281
     1
  3
CANNOSCALE
350
4185
  3
CMLEADERSTYLE
350
4181
  3
CTABLESTYLE
350
366B
  3
CVIEWDETAILSTYLE
350
4182
  3
CVIEWSECTIONSTYLE
350
4183
  3
DGNFRAME
350
4042
  3
DIMASSOC
350
4041
  3
HIDETEXT
350
4040
  3
INDEXCTL
350
403F
  3
LAYEREVAL
350
4187
  3
LAYERNOTIFY
350
4188
  3
LIGHTINGUNITS
350
4186
  3
MSLTSCALE
350
4184
  3
SORTENTS
350
403E
  0
DICTIONARY
  5
36E3
102
{ACAD_REACTORS
330
36E2
102
}
330
36E2
100
AcDbDictionary
281
     1
  0
XRECORD
  5
4162
102
{ACAD_REACTORS
330
4161
102
}
330
4161
100
AcDbXrecord
280
     1
290
     1
  0
XRECORD
  5
4164
102
{ACAD_REACTORS
330
4163
102
}
330
4163
100
AcDbXrecord
280
     1
290
     1
  0
XRECORD
  5
4166
102
{ACAD_REACTORS
330
4165
102
}
330
4165
100
AcDbXrecord
280
     1
290
     1
  0
XRECORD
  5
4168
102
{ACAD_REACTORS
330
4167
102
}
330
4167
100
AcDbXrecord
280
     1
290
     1
  0
XRECORD
  5
416A
102
{ACAD_REACTORS
330
4169
102
}
330
4169
100
AcDbXrecord
280
     1
290
     1
  0
XRECORD
  5
416C
102
{ACAD_REACTORS
330
416B
102
}
330
416B
100
AcDbXrecord
280
     1
290
     1
  0
XRECORD
  5
416E
102
{ACAD_REACTORS
330
416D
102
}
330
416D
100
AcDbXrecord
280
     1
290
     1
  0
XRECORD
  5
4170
102
{ACAD_REACTORS
330
416F
102
}
330
416F
100
AcDbXrecord
280
     1
290
     1
  0
XRECORD
  5
4172
102
{ACAD_REACTORS
330
4171
102
}
330
4171
100
AcDbXrecord
280
     1
290
     1
  0
XRECORD
  5
4174
102
{ACAD_REACTORS
330
4173
102
}
330
4173
100
AcDbXrecord
280
     1
290
     1
  0
XRECORD
  5
4176
102
{ACAD_REACTORS
330
4175
102
}
330
4175
100
AcDbXrecord
280
     1
290
     1
  0
XRECORD
  5
4178
102
{ACAD_REACTORS
330
4177
102
}
330
4177
100
AcDbXrecord
280
     1
290
     1
  0
XRECORD
  5
417A
102
{ACAD_REACTORS
330
4179
102
}
330
4179
100
AcDbXrecord
280
     1
290
     1
  0
XRECORD
  5
417C
102
{ACAD_REACTORS
330
417B
102
}
330
417B
100
AcDbXrecord
280
     1
290
     1
  0
XRECORD
  5
417E
102
{ACAD_REACTORS
330
417D
102
}
330
417D
100
AcDbXrecord
280
     1
290
     1
  0
XRECORD
  5
4180
102
{ACAD_REACTORS
330
417F
102
}
330
417F
100
AcDbXrecord
280
     1
290
     1
  0
ACDBDETAILVIEWSTYLE
  5
409F
102
{ACAD_XDICTIONARY
360
418D
102
}
102
{ACAD_REACTORS
330
409E
102
}
330
409E
100
AcDbModelDocViewStyle
 70
     0
  3
Imperial24
290
     0
100
AcDbDetailViewStyle
 70
     0
 71
     0
 90
        3
 71
     1
340
11
 62
   256
 40
0.24
340
0
 62
   256
 40
0.24
300

 40
0.36
280
     3
 71
     2
340
16
 90
       25
 62
   256
 71
     3
340
11
 62
   256
 40
0.24
 90
        1
 40
0.75
 90
        1
300
%<\AcVar ViewType \f "%tc1">% %<\AcVar ViewDetailId>%\PSCALE %<\AcVar ViewScale \f "%sn">%
 71
     4
340
16
 90
       25
 62
   256
340
16
 90
       25
 62
   256
280
     0
  0
LAYOUT
  5
1E
102
{ACAD_REACTORS
330
1A
102
}
330
1A
100
AcDbPlotSettings
  1

  2
none_device
  4

  6

 40
0.0
 41
0.0
 42
0.0
 43
0.0
 44
0.0
 45
0.0
 46
0.0
 47
0.0
 48
0.0
 49
0.0
140
0.0
141
0.0
142
1.0
143
1.0
 70
   688
 72
     0
 73
     0
 74
     5
  7

 75
    16
147
1.0
 76
     0
 77
     2
 78
   300
148
0.0
149
0.0
100
AcDbLayout
  1
Layout1
 70
     1
 71
     1
 10
0.0
 20
0.0
 11
12.0
 21
9.0
 12
0.0
 22
0.0
 32
0.0
 14
1.000000000000000E+20
 24
1.000000000000000E+20
 34
1.000000000000000E+20
 15
-1.000000000000000E+20
 25
-1.000000000000000E+20
 35
-1.000000000000000E+20
146
0.0
 13
0.0
 23
0.0
 33
0.0
 16
1.0
 26
0.0
 36
0.0
 17
0.0
 27
1.0
 37
0.0
 76
     0
330
1B
  0
LAYOUT
  5
24
102
{ACAD_REACTORS
330
1A
102
}
330
1A
100
AcDbPlotSettings
  1

  2
none_device
  4

  6

 40
0.0
 41
0.0
 42
0.0
 43
0.0
 44
0.0
 45
0.0
 46
0.0
 47
0.0
 48
0.0
 49
0.0
140
0.0
141
0.0
142
1.0
143
1.0
 70
   688
 72
     0
 73
     0
 74
     5
  7

 75
    16
147
1.0
 76
     0
 77
     2
 78
   300
148
0.0
149
0.0
100
AcDbLayout
  1
Layout2
 70
     1
 71
     2
 10
0.0
 20
0.0
 11
0.0
 21
0.0
 12
0.0
 22
0.0
 32
0.0
 14
0.0
 24
0.0
 34
0.0
 15
0.0
 25
0.0
 35
0.0
146
0.0
 13
0.0
 23
0.0
 33
0.0
 16
1.0
 26
0.0
 36
0.0
 17
0.0
 27
1.0
 37
0.0
 76
     0
330
23
  0
LAYOUT
  5
22
102
{ACAD_REACTORS
330
1A
102
}
330
1A
100
AcDbPlotSettings
  1

  2
pdfFactory Pro
  4
A4
  6

 40
6.349999999999998
 41
6.350000000000008
 42
6.350000000000018
 43
6.349999999999998
 44
210.0
 45
297.0
 46
-0.0000000000000082
 47
2.644949494949759
 48
2779.843086854253
 49
90.57469565813876
140
3972.855801320022
141
934.2051151732198
142
1.0
143
4.275876429371925
 70
  1716
 72
     1
 73
     1
 74
     4
  7
Monochrome.ctb
 75
     0
147
0.2338701822931042
 76
     0
 77
     2
 78
   300
148
0.0
149
0.0
100
AcDbLayout
  1
Model
 70
     1
 71
     0
 10
0.0
 20
0.0
 11
12.0
 21
9.0
 12
0.0
 22
0.0
 32
0.0
 14
133.3430868542532
 24
90.57469565813876
 34
0.0
 15
3972.855801320022
 25
934.2051151732198
 35
0.0
146
0.0
 13
0.0
 23
0.0
 33
0.0
 16
1.0
 26
0.0
 36
0.0
 17
0.0
 27
1.0
 37
0.0
 76
     0
330
1F
331
27
  0
MATERIAL
  5
3511
102
{ACAD_XDICTIONARY
360
404E
102
}
102
{ACAD_REACTORS
330
350F
102
}
330
350F
100
AcDbMaterial
  1
ByBlock
  0
MATERIAL
  5
3510
102
{ACAD_XDICTIONARY
360
404C
102
}
102
{ACAD_REACTORS
330
350F
102
}
330
350F
100
AcDbMaterial
  1
ByLayer
  0
MATERIAL
  5
3512
102
{ACAD_XDICTIONARY
360
4050
102
}
102
{ACAD_REACTORS
330
350F
102
}
330
350F
100
AcDbMaterial
  1
Global
  0
MLEADERSTYLE
  5
409B
102
{ACAD_REACTORS
330
409A
102
}
330
409A
100
AcDbMLeaderStyle
179
     2
170
     2
171
     1
172
     0
 90
        2
 40
0.0
 41
0.0
173
     1
 91
-1056964608
340
14
 92
       -2
290
     1
 42
0.09
291
     1
 43
0.36
  3
Standard
 44
0.18
300

342
11
174
     1
178
     6
175
     1
176
     0
 93
-1056964608
 45
0.18
292
     0
297
     0
 46
0.18
 94
-1056964608
 47
1.0
 49
1.0
140
1.0
293
     1
141
0.0
294
     1
177
     0
142
1.0
295
     0
296
     0
143
0.125
271
     0
272
     9
273
     9
298
     0
  0
MLINESTYLE
  5
18
102
{ACAD_REACTORS
330
17
102
}
330
17
100
AcDbMlineStyle
  2
STANDARD
 70
     0
  3

 62
   256
 51
90.0
 52
90.0
 71
     2
 49
0.5
 62
   256
  6
BYLAYER
 49
-0.5
 62
   256
  6
BYLAYER
  0
ACDBPLACEHOLDER
  5
F
102
{ACAD_REACTORS
330
E
102
}
330
E
  0
SCALE
  5
4089
102
{ACAD_REACTORS
330
4088
102
}
330
4088
100
AcDbScale
 70
     0
300
1:1
140
1.0
141
1.0
290
     1
  0
SCALE
  5
408A
102
{ACAD_REACTORS
330
4088
102
}
330
4088
100
AcDbScale
 70
     0
300
1/128" = 1'-0"
140
0.0078125
141
12.0
290
     0
  0
SCALE
  5
408B
102
{ACAD_REACTORS
330
4088
102
}
330
4088
100
AcDbScale
 70
     0
300
1/64" = 1'-0"
140
0.015625
141
12.0
290
     0
  0
SCALE
  5
408C
102
{ACAD_REACTORS
330
4088
102
}
330
4088
100
AcDbScale
 70
     0
300
1/32" = 1'-0"
140
0.03125
141
12.0
290
     0
  0
SCALE
  5
408D
102
{ACAD_REACTORS
330
4088
102
}
330
4088
100
AcDbScale
 70
     0
300
1/16" = 1'-0"
140
0.0625
141
12.0
290
     0
  0
SCALE
  5
408E
102
{ACAD_REACTORS
330
4088
102
}
330
4088
100
AcDbScale
 70
     0
300
3/32" = 1'-0"
140
0.09375
141
12.0
290
     0
  0
SCALE
  5
408F
102
{ACAD_REACTORS
330
4088
102
}
330
4088
100
AcDbScale
 70
     0
300
1/8" = 1'-0"
140
0.125
141
12.0
290
     0
  0
SCALE
  5
4090
102
{ACAD_REACTORS
330
4088
102
}
330
4088
100
AcDbScale
 70
     0
300
3/16" = 1'-0"
140
0.1875
141
12.0
290
     0
  0
SCALE
  5
4091
102
{ACAD_REACTORS
330
4088
102
}
330
4088
100
AcDbScale
 70
     0
300
1/4" = 1'-0"
140
0.25
141
12.0
290
     0
  0
SCALE
  5
4092
102
{ACAD_REACTORS
330
4088
102
}
330
4088
100
AcDbScale
 70
     0
300
3/8" = 1'-0"
140
0.375
141
12.0
290
     0
  0
SCALE
  5
4093
102
{ACAD_REACTORS
330
4088
102
}
330
4088
100
AcDbScale
 70
     0
300
1/2" = 1'-0"
140
0.5
141
12.0
290
     0
  0
SCALE
  5
4094
102
{ACAD_REACTORS
330
4088
102
}
330
4088
100
AcDbScale
 70
     0
300
3/4" = 1'-0"
140
0.75
141
12.0
290
     0
  0
SCALE
  5
4095
102
{ACAD_REACTORS
330
4088
102
}
330
4088
100
AcDbScale
 70
     0
300
1" = 1'-0"
140
1.0
141
12.0
290
     0
  0
SCALE
  5
4096
102
{ACAD_REACTORS
330
4088
102
}
330
4088
100
AcDbScale
 70
     0
300
1-1/2" = 1'-0"
140
1.5
141
12.0
290
     0
  0
SCALE
  5
4097
102
{ACAD_REACTORS
330
4088
102
}
330
4088
100
AcDbScale
 70
     0
300
3" = 1'-0"
140
3.0
141
12.0
290
     0
  0
SCALE
  5
4098
102
{ACAD_REACTORS
330
4088
102
}
330
4088
100
AcDbScale
 70
     0
300
6" = 1'-0"
140
6.0
141
12.0
290
     0
  0
SCALE
  5
4099
102
{ACAD_REACTORS
330
4088
102
}
330
4088
100
AcDbScale
 70
     0
300
1'-0" = 1'-0"
140
12.0
141
12.0
290
     0
  0
ACDBSECTIONVIEWSTYLE
  5
409D
102
{ACAD_XDICTIONARY
360
418B
102
}
102
{ACAD_REACTORS
330
409C
102
}
330
409C
100
AcDbModelDocViewStyle
 70
     0
  3
Imperial24
290
     0
100
AcDbSectionViewStyle
 70
     0
 71
     0
 90
       78
 71
     1
340
11
 62
   256
 40
0.24
340
0
340
0
 62
   256
 40
0.24
300
I, O, Q, S, X, Z
 40
0.48
 90
        3
 40
0.18
 90
        1
 71
     2
340
16
 90
       25
 62
   256
340
16
 90
       50
 62
   256
 40
0.24
 40
0.0
 40
0.24
 71
     3
340
11
 62
   256
 40
0.24
 90
        1
 40
0.75
 90
        1
300
%<\AcVar ViewType \f "%tc1">% %<\AcVar ViewSectionStartId>%-%<\AcVar ViewSectionEndId>%\PSCALE %<\AcVar ViewScale \f "%sn">%
 71
     4
 62
   256
 62
   257
300
ANSI31
 40
1.0
 90
        0
290
     0
290
     0
 90
        6
 40
0.0
 40
1.570796326794896
 40
0.2617993877991494
 40
1.308996938995747
 40
-0.2617993877991494
 40
1.832595714594046
  0
TABLESTYLE
  5
3514
102
{ACAD_XDICTIONARY
360
4189
102
}
102
{ACAD_REACTORS
330
E9
102
}
330
E9
100
AcDbTableStyle
280
     0
  3
Standard
 70
     0
 71
     0
 40
0.06
 41
0.06
280
     0
281
     0
  7
Standard
140
0.18
170
     2
 62
     0
 63
     7
283
     0
 90
      512
 91
        0
  1

274
    -2
284
     1
 64
     0
275
    -2
285
     1
 65
     0
276
    -2
286
     1
 66
     0
277
    -2
287
     1
 67
     0
278
    -2
288
     1
 68
     0
279
    -2
289
     1
 69
     0
  7
Standard
140
0.25
170
     5
 62
     0
 63
     7
283
     0
 90
      512
 91
        0
  1

274
    -2
284
     1
 64
     0
275
    -2
285
     1
 65
     0
276
    -2
286
     1
 66
     0
277
    -2
287
     1
 67
     0
278
    -2
288
     1
 68
     0
279
    -2
289
     1
 69
     0
  7
Standard
140
0.18
170
     5
 62
     0
 63
     7
283
     0
 90
      512
 91
        0
  1

274
    -2
284
     1
 64
     0
275
    -2
285
     1
 65
     0
276
    -2
286
     1
 66
     0
277
    -2
287
     1
 67
     0
278
    -2
288
     1
 68
     0
279
    -2
289
     1
 69
     0
  0
VISUALSTYLE
  5
2D
102
{ACAD_REACTORS
330
28
102
}
330
28
100
AcDbVisualStyle
  2

 70
     4
177
     3
291
     0
 70
    58
 90
        0
176
     1
 90
        2
176
     1
 90
        0
176
     1
 90
        0
176
     1
 40
0.6
176
     1
 40
30.0
176
     1
 62
     7
176
     1
 90
        1
176
     1
 90
        4
176
     1
 62
     7
176
     1
 62
   257
176
     1
 90
        1
176
     1
 90
        1
176
     1
 40
1.0
176
     1
 90
        0
176
     1
 62
   257
176
     1
 40
1.0
176
     1
 90
        1
176
     1
 90
        6
176
     1
 90
        2
176
     1
 62
     7
176
     1
 90
        5
176
     1
 90
        0
176
     1
 90
        0
176
     1
290
     0
176
     1
 90
        1
176
     1
 40
0.0
176
     1
 90
        0
176
     1
290
     1
176
     1
290
     1
176
     1
290
     0
176
     1
290
     0
176
     1
290
     0
176
     1
290
     0
176
     1
290
     0
176
     1
290
     0
176
     1
290
     0
176
     1
 90
       50
176
     1
 40
0.0
176
     1
 40
1.0
176
     1
 90
        0
176
     1
 62
    18
420
        0
176
     1
 90
       50
176
     1
 90
        3
176
     1
 62
     5
420
      255
176
     1
290
     0
176
     1
 90
       50
176
     1
 90
       50
176
     1
 90
       50
176
     1
290
     0
176
     1
 90
       50
176
     1
 62
   256
176
     0
 40
1.0
176
     0
 90
        2
176
     1
  1
strokes_ogs.tif
176
     1
290
     0
176
     1
 40
1.0
176
     1
 40
1.0
176
     1
1001
ACAD
1000
AcDbSavedByObjectVersion
1070
     0
  0
VISUALSTYLE
  5
2F
102
{ACAD_REACTORS
330
28
102
}
330
28
100
AcDbVisualStyle
  2

 70
     6
177
     3
291
     0
 70
    58
 90
        1
176
     1
 90
        2
176
     1
 90
        2
176
     1
 90
        0
176
     1
 40
0.6
176
     1
 40
30.0
176
     1
 62
     7
176
     1
 90
        2
176
     1
 90
        2
176
     1
 62
     7
176
     1
 62
   257
176
     1
 90
        2
176
     1
 90
        1
176
     1
 40
40.0
176
     1
 90
        0
176
     1
 62
   257
176
     1
 40
1.0
176
     1
 90
        1
176
     1
 90
        6
176
     1
 90
        2
176
     1
 62
     7
176
     1
 90
        3
176
     1
 90
        0
176
     1
 90
        0
176
     1
290
     0
176
     1
 90
        1
176
     1
 40
0.0
176
     1
 90
        0
176
     1
290
     0
176
     1
290
     1
176
     1
290
     1
176
     1
290
     0
176
     1
290
     0
176
     1
290
     0
176
     1
290
     0
176
     1
290
     0
176
     1
290
     0
176
     1
 90
       50
176
     1
 40
0.0
176
     1
 40
1.0
176
     1
 90
        0
176
     1
 62
    18
420
        0
176
     1
 90
       50
176
     1
 90
        3
176
     1
 62
     5
420
      255
176
     1
290
     0
176
     1
 90
       50
176
     1
 90
       50
176
     1
 90
       50
176
     1
290
     0
176
     1
 90
       50
176
     1
 62
   256
176
     0
 40
1.0
176
     0
 90
        2
176
     1
  1
strokes_ogs.tif
176
     1
290
     0
176
     1
 40
1.0
176
     1
 40
1.0
176
     1
1001
ACAD
1000
AcDbSavedByObjectVersion
1070
     0
  0
VISUALSTYLE
  5
2E
102
{ACAD_REACTORS
330
28
102
}
330
28
100
AcDbVisualStyle
  2

 70
     5
177
     3
291
     0
 70
    58
 90
        0
176
     1
 90
        2
176
     1
 90
        0
176
     1
 90
        0
176
     1
 40
0.6
176
     1
 40
30.0
176
     1
 62
     7
176
     1
 90
        1
176
     1
 90
        4
176
     1
 62
     7
176
     1
 62
   257
176
     1
 90
        1
176
     1
 90
        1
176
     1
 40
1.0
176
     1
 90
        0
176
     1
 62
   257
176
     1
 40
1.0
176
     1
 90
        1
176
     1
 90
        6
176
     1
 90
        2
176
     1
 62
     7
176
     1
 90
        5
176
     1
 90
        0
176
     1
 90
        0
176
     1
290
     0
176
     1
 90
        1
176
     1
 40
0.0
176
     1
 90
        0
176
     1
290
     0
176
     1
290
     1
176
     1
290
     1
176
     1
290
     0
176
     1
290
     0
176
     1
290
     0
176
     1
290
     0
176
     1
290
     0
176
     1
290
     0
176
     1
 90
       50
176
     1
 40
0.0
176
     1
 40
1.0
176
     1
 90
        0
176
     1
 62
    18
420
        0
176
     1
 90
       50
176
     1
 90
        3
176
     1
 62
     5
420
      255
176
     1
290
     0
176
     1
 90
       50
176
     1
 90
       50
176
     1
 90
       50
176
     1
290
     0
176
     1
 90
       50
176
     1
 62
   256
176
     0
 40
1.0
176
     0
 90
        2
176
     1
  1
strokes_ogs.tif
176
     1
290
     0
176
     1
 40
1.0
176
     1
 40
1.0
176
     1
1001
ACAD
1000
AcDbSavedByObjectVersion
1070
     0
  0
VISUALSTYLE
  5
30
102
{ACAD_REACTORS
330
28
102
}
330
28
100
AcDbVisualStyle
  2

 70
     7
177
     3
291
     1
 70
    58
 90
        1
176
     1
 90
        0
176
     1
 90
        1
176
     1
 90
        0
176
     1
 40
0.6
176
     1
 40
30.0
176
     1
 62
     7
176
     1
 90
        0
176
     1
 90
        4
176
     1
 62
     7
176
     1
 62
   257
176
     1
 90
        1
176
     1
 90
        1
176
     1
 40
1.0
176
     1
 90
        8
176
     1
 62
     7
176
     1
 40
1.0
176
     1
 90
        1
176
     1
 90
        6
176
     1
 90
        2
176
     1
 62
     7
176
     1
 90
        5
176
     1
 90
        0
176
     1
 90
        0
176
     1
290
     0
176
     1
 90
        1
176
     1
 40
0.0
176
     1
 90
        0
176
     1
290
     0
176
     1
290
     1
176
     1
290
     1
176
     1
290
     0
176
     1
290
     0
176
     1
290
     0
176
     1
290
     0
176
     1
290
     0
176
     1
290
     0
176
     1
 90
       50
176
     1
 40
0.0
176
     1
 40
1.0
176
     1
 90
        0
176
     1
 62
    18
420
        0
176
     1
 90
       50
176
     1
 90
        3
176
     1
 62
     5
420
      255
176
     1
290
     0
176
     1
 90
       50
176
     1
 90
       50
176
     1
 90
       50
176
     1
290
     0
176
     1
 90
       50
176
     1
 62
   256
176
     0
 40
1.0
176
     0
 90
        2
176
     1
  1
strokes_ogs.tif
176
     1
290
     0
176
     1
 40
1.0
176
     1
 40
1.0
176
     1
1001
ACAD
1000
AcDbSavedByObjectVersion
1070
     0
  0
VISUALSTYLE
  5
34
102
{ACAD_REACTORS
330
28
102
}
330
28
100
AcDbVisualStyle
  2

 70
    12
177
     3
291
     1
 70
    58
 90
        2
176
     1
 90
        2
176
     1
 90
        0
176
     1
 90
        0
176
     1
 40
0.6
176
     1
 40
30.0
176
     1
 62
     7
176
     1
 90
        1
176
     1
 90
        4
176
     1
 62
     7
176
     1
 62
   257
176
     1
 90
        1
176
     1
 90
        1
176
     1
 40
1.0
176
     1
 90
        8
176
     1
 62
     7
176
     1
 40
1.0
176
     1
 90
        1
176
     1
 90
        6
176
     1
 90
        2
176
     1
 62
     7
176
     1
 90
        5
176
     1
 90
        0
176
     1
 90
        0
176
     1
290
     0
176
     1
 90
        1
176
     1
 40
50.0
176
     1
 90
        0
176
     1
290
     0
176
     1
290
     1
176
     1
290
     1
176
     1
290
     0
176
     1
290
     0
176
     1
290
     0
176
     1
290
     0
176
     1
290
     0
176
     1
290
     0
176
     1
 90
       50
176
     1
 40
0.0
176
     1
 40
1.0
176
     1
 90
        0
176
     1
 62
    18
420
        0
176
     1
 90
       50
176
     1
 90
        3
176
     1
 62
     5
420
      255
176
     1
290
     0
176
     1
 90
       50
176
     1
 90
       50
176
     1
 90
       50
176
     1
290
     0
176
     1
 90
       50
176
     1
 62
   256
176
     0
 40
1.0
176
     0
 90
        2
176
     1
  1
strokes_ogs.tif
176
     1
290
     0
176
     1
 40
1.0
176
     1
 40
1.0
176
     1
1001
ACAD
1000
AcDbSavedByObjectVersion
1070
     0
  0
VISUALSTYLE
  5
38
102
{ACAD_REACTORS
330
28
102
}
330
28
100
AcDbVisualStyle
  2

 70
    16
177
     3
291
     1
 70
    58
 90
        2
176
     1
 90
        2
176
     1
 90
        3
176
     1
 90
        0
176
     1
 40
0.6
176
     1
 40
30.0
176
     1
 62
     8
176
     1
 90
        1
176
     1
 90
        4
176
     1
 62
     7
176
     1
 62
   257
176
     1
 90
        1
176
     1
 90
        1
176
     1
 40
1.0
176
     1
 90
        8
176
     1
 62
     8
176
     1
 40
1.0
176
     1
 90
        1
176
     1
 90
        6
176
     1
 90
        2
176
     1
 62
     7
176
     1
 90
        5
176
     1
 90
        0
176
     1
 90
        0
176
     1
290
     0
176
     1
 90
        1
176
     1
 40
0.0
176
     1
 90
        0
176
     1
290
     0
176
     1
290
     1
176
     1
290
     1
176
     1
290
     0
176
     1
290
     0
176
     1
290
     0
176
     1
290
     0
176
     1
290
     0
176
     1
290
     0
176
     1
 90
       50
176
     1
 40
0.0
176
     1
 40
1.0
176
     1
 90
        0
176
     1
 62
    18
420
        0
176
     1
 90
       50
176
     1
 90
        3
176
     1
 62
     5
420
      255
176
     1
290
     0
176
     1
 90
       50
176
     1
 90
       50
176
     1
 90
       50
176
     1
290
     0
176
     1
 90
       50
176
     1
 62
   256
176
     0
 40
1.0
176
     0
 90
        2
176
     1
  1
strokes_ogs.tif
176
     1
290
     0
176
     1
 40
1.0
176
     1
 40
1.0
176
     1
1001
ACAD
1000
AcDbSavedByObjectVersion
1070
     0
  0
VISUALSTYLE
  5
32
102
{ACAD_REACTORS
330
28
102
}
330
28
100
AcDbVisualStyle
  2

 70
     9
177
     3
291
     0
 70
    58
 90
        3
176
     1
 90
        2
176
     1
 90
        0
176
     1
 90
        0
176
     1
 40
0.6
176
     1
 40
30.0
176
     1
 62
     7
176
     1
 90
        2
176
     1
 90
        2
176
     1
 62
     7
176
     1
 62
   257
176
     1
 90
        1
176
     1
 90
        1
176
     1
 40
40.0
176
     1
 90
        8
176
     1
 62
     7
176
     1
 40
1.0
176
     1
 90
        1
176
     1
 90
        6
176
     1
 90
        2
176
     1
 62
     7
176
     1
 90
        3
176
     1
 90
        0
176
     1
 90
        0
176
     1
290
     0
176
     1
 90
        1
176
     1
 40
0.0
176
     1
 90
        0
176
     1
290
     0
176
     1
290
     1
176
     1
290
     1
176
     1
290
     0
176
     1
290
     0
176
     1
290
     0
176
     1
290
     0
176
     1
290
     0
176
     1
290
     0
176
     1
 90
       50
176
     1
 40
0.0
176
     1
 40
1.0
176
     1
 90
        0
176
     1
 62
    18
420
        0
176
     1
 90
       50
176
     1
 90
        3
176
     1
 62
     5
420
      255
176
     1
290
     0
176
     1
 90
       50
176
     1
 90
       50
176
     1
 90
       50
176
     1
290
     0
176
     1
 90
       50
176
     1
 62
   256
176
     0
 40
1.0
176
     0
 90
        2
176
     1
  1
strokes_ogs.tif
176
     1
290
     0
176
     1
 40
1.0
176
     1
 40
1.0
176
     1
1001
ACAD
1000
AcDbSavedByObjectVersion
1070
     0
  0
VISUALSTYLE
  5
33
102
{ACAD_REACTORS
330
28
102
}
330
28
100
AcDbVisualStyle
  2

 70
    11
177
     3
291
     1
 70
    58
 90
        2
176
     1
 90
        2
176
     1
 90
        0
176
     1
 90
        0
176
     1
 40
0.6
176
     1
 40
30.0
176
     1
 62
     7
176
     1
 90
        1
176
     1
 90
        4
176
     1
 62
     7
176
     1
 62
   257
176
     1
 90
        1
176
     1
 90
        1
176
     1
 40
1.0
176
     1
 90
        8
176
     1
 62
     7
176
     1
 40
1.0
176
     1
 90
        1
176
     1
 90
        6
176
     1
 90
        2
176
     1
 62
     7
176
     1
 90
        5
176
     1
 90
        0
176
     1
 90
        0
176
     1
290
     0
176
     1
 90
        1
176
     1
 40
-50.0
176
     1
 90
        0
176
     1
290
     0
176
     1
290
     1
176
     1
290
     1
176
     1
290
     0
176
     1
290
     0
176
     1
290
     0
176
     1
290
     0
176
     1
290
     0
176
     1
290
     0
176
     1
 90
       50
176
     1
 40
0.0
176
     1
 40
1.0
176
     1
 90
        0
176
     1
 62
    18
420
        0
176
     1
 90
       50
176
     1
 90
        3
176
     1
 62
     5
420
      255
176
     1
290
     0
176
     1
 90
       50
176
     1
 90
       50
176
     1
 90
       50
176
     1
290
     0
176
     1
 90
       50
176
     1
 62
   256
176
     0
 40
1.0
176
     0
 90
        2
176
     1
  1
strokes_ogs.tif
176
     1
290
     0
176
     1
 40
1.0
176
     1
 40
1.0
176
     1
1001
ACAD
1000
AcDbSavedByObjectVersion
1070
     0
  0
VISUALSTYLE
  5
4087
102
{ACAD_REACTORS
330
28
102
}
330
28
100
AcDbVisualStyle
  2
EdgeColorOff
 70
    22
177
     3
291
     1
 70
    58
 90
        2
176
     0
 90
        2
176
     0
 90
        0
176
     0
 90
        0
176
     0
 40
0.6
176
     0
 40
30.0
176
     0
 62
     7
420
 16777215
176
     0
 90
        1
176
     0
 90
        4
176
     0
 62
     7
176
     0
 62
   257
176
     0
 90
        1
176
     0
 90
        1
176
     0
 40
1.0
176
     0
 90
        8
176
     2
 62
     7
176
     0
 40
1.0
176
     0
 90
        1
176
     0
 90
        6
176
     0
 90
        2
176
     0
 62
     7
176
     0
 90
        5
176
     0
 90
        0
176
     0
 90
        0
176
     0
290
     0
176
     0
 90
        1
176
     0
 40
0.0
176
     0
 90
        0
176
     0
290
     0
176
     1
290
     1
176
     1
290
     1
176
     1
290
     0
176
     1
290
     0
176
     1
290
     0
176
     1
290
     0
176
     1
290
     0
176
     1
290
     0
176
     1
 90
       50
176
     0
 40
0.0
176
     0
 40
1.0
176
     0
 90
        0
176
     0
 62
    18
420
        0
176
     0
 90
       50
176
     0
 90
        3
176
     0
 62
     5
420
      255
176
     0
290
     0
176
     1
 90
       50
176
     0
 90
       50
176
     0
 90
       50
176
     0
290
     0
176
     1
 90
       50
176
     0
 62
   256
176
     0
 40
1.0
176
     0
 90
        2
176
     0
  1
strokes_ogs.tif
176
     0
290
     0
176
     1
 40
1.0
176
     0
 40
1.0
176
     0
  0
VISUALSTYLE
  5
37
102
{ACAD_REACTORS
330
28
102
}
330
28
100
AcDbVisualStyle
  2

 70
    15
177
     3
291
     1
 70
    58
 90
        2
176
     1
 90
        2
176
     1
 90
        0
176
     1
 90
        0
176
     1
 40
0.6
176
     1
 40
30.0
176
     1
 62
     7
176
     1
 90
        1
176
     1
 90
        4
176
     1
 62
     7
176
     1
 62
   257
176
     1
 90
        1
176
     1
 90
        1
176
     1
 40
1.0
176
     1
 90
        8
176
     1
 62
     7
176
     1
 40
1.0
176
     1
 90
        1
176
     1
 90
        6
176
     1
 90
        2
176
     1
 62
     7
176
     1
 90
        5
176
     1
 90
        0
176
     1
 90
        0
176
     1
290
     0
176
     1
 90
        1
176
     1
 40
0.0
176
     1
 90
        0
176
     1
290
     0
176
     1
290
     1
176
     1
290
     1
176
     1
290
     0
176
     1
290
     0
176
     1
290
     0
176
     1
290
     0
176
     1
290
     0
176
     1
290
     0
176
     1
 90
       50
176
     1
 40
0.0
176
     1
 40
1.0
176
     1
 90
        0
176
     1
 62
    18
420
        0
176
     1
 90
       50
176
     1
 90
        3
176
     1
 62
     5
420
      255
176
     1
290
     0
176
     1
 90
       50
176
     1
 90
       50
176
     1
 90
       50
176
     1
290
     0
176
     1
 90
       50
176
     1
 62
   256
176
     0
 40
1.0
176
     0
 90
        2
176
     1
  1
strokes_ogs.tif
176
     1
290
     0
176
     1
 40
1.0
176
     1
 40
1.0
176
     1
1001
ACAD
1000
AcDbSavedByObjectVersion
1070
     0
  0
VISUALSTYLE
  5
29
102
{ACAD_REACTORS
330
28
102
}
330
28
100
AcDbVisualStyle
  2

 70
     0
177
     3
291
     1
 70
    58
 90
        2
176
     1
 90
        1
176
     1
 90
        1
176
     1
 90
        2
176
     1
 40
0.6
176
     1
 40
30.0
176
     1
 62
     7
176
     1
 90
        0
176
     1
 90
        4
176
     1
 62
     7
176
     1
 62
   257
176
     1
 90
        1
176
     1
 90
        1
176
     1
 40
1.0
176
     1
 90
        8
176
     1
 62
     7
176
     1
 40
1.0
176
     1
 90
        1
176
     1
 90
        6
176
     1
 90
        2
176
     1
 62
     7
176
     1
 90
        5
176
     1
 90
        0
176
     1
 90
        0
176
     1
290
     0
176
     1
 90
       13
176
     1
 40
0.0
176
     1
 90
        0
176
     1
290
     0
176
     1
290
     1
176
     1
290
     1
176
     1
290
     0
176
     1
290
     0
176
     1
290
     0
176
     1
290
     0
176
     1
290
     0
176
     1
290
     0
176
     1
 90
       50
176
     1
 40
0.0
176
     1
 40
1.0
176
     1
 90
        0
176
     1
 62
    18
420
        0
176
     1
 90
       50
176
     1
 90
        3
176
     1
 62
     5
420
      255
176
     1
290
     0
176
     1
 90
       50
176
     1
 90
       50
176
     1
 90
       50
176
     1
290
     0
176
     1
 90
       50
176
     1
 62
   256
176
     0
 40
1.0
176
     0
 90
        2
176
     1
  1
strokes_ogs.tif
176
     1
290
     0
176
     1
 40
1.0
176
     1
 40
1.0
176
     1
1001
ACAD
1000
AcDbSavedByObjectVersion
1070
     0
  0
VISUALSTYLE
  5
2A
102
{ACAD_REACTORS
330
28
102
}
330
28
100
AcDbVisualStyle
  2

 70
     1
177
     3
291
     1
 70
    58
 90
        2
176
     1
 90
        1
176
     1
 90
        1
176
     1
 90
        2
176
     1
 40
0.6
176
     1
 40
30.0
176
     1
 62
     7
176
     1
 90
        1
176
     1
 90
        4
176
     1
 62
     7
176
     1
 62
   257
176
     1
 90
        1
176
     1
 90
        1
176
     1
 40
1.0
176
     1
 90
        0
176
     1
 62
   257
176
     1
 40
1.0
176
     1
 90
        1
176
     1
 90
        6
176
     1
 90
        2
176
     1
 62
     7
176
     1
 90
        5
176
     1
 90
        0
176
     1
 90
        0
176
     1
290
     0
176
     1
 90
       13
176
     1
 40
0.0
176
     1
 90
        0
176
     1
290
     0
176
     1
290
     1
176
     1
290
     1
176
     1
290
     0
176
     1
290
     0
176
     1
290
     0
176
     1
290
     0
176
     1
290
     0
176
     1
290
     0
176
     1
 90
       50
176
     1
 40
0.0
176
     1
 40
1.0
176
     1
 90
        0
176
     1
 62
    18
420
        0
176
     1
 90
       50
176
     1
 90
        3
176
     1
 62
     5
420
      255
176
     1
290
     0
176
     1
 90
       50
176
     1
 90
       50
176
     1
 90
       50
176
     1
290
     0
176
     1
 90
       50
176
     1
 62
   256
176
     0
 40
1.0
176
     0
 90
        2
176
     1
  1
strokes_ogs.tif
176
     1
290
     0
176
     1
 40
1.0
176
     1
 40
1.0
176
     1
1001
ACAD
1000
AcDbSavedByObjectVersion
1070
     0
  0
VISUALSTYLE
  5
2B
102
{ACAD_REACTORS
330
28
102
}
330
28
100
AcDbVisualStyle
  2

 70
     2
177
     3
291
     1
 70
    58
 90
        2
176
     1
 90
        2
176
     1
 90
        1
176
     1
 90
        2
176
     1
 40
0.6
176
     1
 40
30.0
176
     1
 62
     7
176
     1
 90
        0
176
     1
 90
        4
176
     1
 62
     7
176
     1
 62
   257
176
     1
 90
        1
176
     1
 90
        1
176
     1
 40
1.0
176
     1
 90
        0
176
     1
 62
     7
176
     1
 40
1.0
176
     1
 90
        1
176
     1
 90
        6
176
     1
 90
        2
176
     1
 62
     7
176
     1
 90
        5
176
     1
 90
        0
176
     1
 90
        0
176
     1
290
     0
176
     1
 90
       13
176
     1
 40
0.0
176
     1
 90
        0
176
     1
290
     0
176
     1
290
     1
176
     1
290
     1
176
     1
290
     0
176
     1
290
     0
176
     1
290
     0
176
     1
290
     0
176
     1
290
     0
176
     1
290
     0
176
     1
 90
       50
176
     1
 40
0.0
176
     1
 40
1.0
176
     1
 90
        0
176
     1
 62
    18
420
        0
176
     1
 90
       50
176
     1
 90
        3
176
     1
 62
     5
420
      255
176
     1
290
     0
176
     1
 90
       50
176
     1
 90
       50
176
     1
 90
       50
176
     1
290
     0
176
     1
 90
       50
176
     1
 62
   256
176
     0
 40
1.0
176
     0
 90
        2
176
     1
  1
strokes_ogs.tif
176
     1
290
     0
176
     1
 40
1.0
176
     1
 40
1.0
176
     1
1001
ACAD
1000
AcDbSavedByObjectVersion
1070
     0
  0
VISUALSTYLE
  5
2C
102
{ACAD_REACTORS
330
28
102
}
330
28
100
AcDbVisualStyle
  2

 70
     3
177
     3
291
     1
 70
    58
 90
        2
176
     1
 90
        2
176
     1
 90
        1
176
     1
 90
        2
176
     1
 40
0.6
176
     1
 40
30.0
176
     1
 62
     7
176
     1
 90
        1
176
     1
 90
        4
176
     1
 62
     7
176
     1
 62
   257
176
     1
 90
        1
176
     1
 90
        1
176
     1
 40
1.0
176
     1
 90
        0
176
     1
 62
   257
176
     1
 40
1.0
176
     1
 90
        1
176
     1
 90
        6
176
     1
 90
        2
176
     1
 62
     7
176
     1
 90
        5
176
     1
 90
        0
176
     1
 90
        0
176
     1
290
     0
176
     1
 90
       13
176
     1
 40
0.0
176
     1
 90
        0
176
     1
290
     0
176
     1
290
     1
176
     1
290
     1
176
     1
290
     0
176
     1
290
     0
176
     1
290
     0
176
     1
290
     0
176
     1
290
     0
176
     1
290
     0
176
     1
 90
       50
176
     1
 40
0.0
176
     1
 40
1.0
176
     1
 90
        0
176
     1
 62
    18
420
        0
176
     1
 90
       50
176
     1
 90
        3
176
     1
 62
     5
420
      255
176
     1
290
     0
176
     1
 90
       50
176
     1
 90
       50
176
     1
 90
       50
176
     1
290
     0
176
     1
 90
       50
176
     1
 62
   256
176
     0
 40
1.0
176
     0
 90
        2
176
     1
  1
strokes_ogs.tif
176
     1
290
     0
176
     1
 40
1.0
176
     1
 40
1.0
176
     1
1001
ACAD
1000
AcDbSavedByObjectVersion
1070
     0
  0
VISUALSTYLE
  5
407F
102
{ACAD_REACTORS
330
28
102
}
330
28
100
AcDbVisualStyle
  2
Hidden
 70
     6
177
     3
291
     0
 70
    58
 90
        1
176
     1
 90
        2
176
     1
 90
        2
176
     1
 90
        0
176
     1
 40
0.6
176
     1
 40
30.0
176
     1
 62
     7
420
 16777215
176
     1
 90
        2
176
     1
 90
        2
176
     1
 62
     7
176
     1
 62
   257
176
     1
 90
        2
176
     1
 90
        1
176
     1
 40
40.0
176
     1
 90
        0
176
     1
 62
   257
176
     1
 40
1.0
176
     1
 90
        1
176
     1
 90
        6
176
     1
 90
        2
176
     1
 62
     7
176
     1
 90
        3
176
     1
 90
        0
176
     1
 90
        0
176
     1
290
     0
176
     1
 90
        1
176
     1
 40
0.0
176
     1
 90
        0
176
     1
290
     0
176
     1
290
     1
176
     1
290
     1
176
     1
290
     0
176
     1
290
     0
176
     1
290
     0
176
     1
290
     0
176
     1
290
     0
176
     1
290
     0
176
     1
 90
       50
176
     1
 40
0.0
176
     1
 40
1.0
176
     1
 90
        0
176
     1
 62
    18
420
        0
176
     1
 90
       50
176
     1
 90
        3
176
     1
 62
     5
420
      255
176
     1
290
     0
176
     1
 90
       50
176
     1
 90
       50
176
     1
 90
       50
176
     1
290
     0
176
     1
 90
       50
176
     1
 62
   256
176
     0
 40
1.0
176
     0
 90
        2
176
     1
  1
strokes_ogs.tif
176
     1
290
     0
176
     1
 40
1.0
176
     1
 40
1.0
176
     1
  0
VISUALSTYLE
  5
4085
102
{ACAD_REACTORS
330
28
102
}
330
28
100
AcDbVisualStyle
  2
JitterOff
 70
    20
177
     3
291
     1
 70
    58
 90
        2
176
     0
 90
        2
176
     0
 90
        0
176
     0
 90
        0
176
     0
 40
0.6
176
     0
 40
30.0
176
     0
 62
     7
420
 16777215
176
     0
 90
        1
176
     0
 90
        4
176
     0
 62
     7
176
     0
 62
   257
176
     0
 90
        1
176
     0
 90
        1
176
     0
 40
1.0
176
     0
 90
       10
176
     2
 62
     7
176
     0
 40
1.0
176
     0
 90
        1
176
     0
 90
        6
176
     0
 90
        2
176
     0
 62
     7
176
     0
 90
        5
176
     0
 90
        0
176
     0
 90
        0
176
     0
290
     0
176
     0
 90
        1
176
     0
 40
0.0
176
     0
 90
        0
176
     0
290
     0
176
     1
290
     1
176
     1
290
     1
176
     1
290
     0
176
     1
290
     0
176
     1
290
     0
176
     1
290
     0
176
     1
290
     0
176
     1
290
     0
176
     1
 90
       50
176
     0
 40
0.0
176
     0
 40
1.0
176
     0
 90
        0
176
     0
 62
    18
420
        0
176
     0
 90
       50
176
     0
 90
        3
176
     0
 62
     5
420
      255
176
     0
290
     0
176
     1
 90
       50
176
     0
 90
       50
176
     0
 90
       50
176
     0
290
     0
176
     1
 90
       50
176
     0
 62
   256
176
     0
 40
1.0
176
     0
 90
        2
176
     0
  1
strokes_ogs.tif
176
     0
290
     0
176
     1
 40
1.0
176
     0
 40
1.0
176
     0
  0
VISUALSTYLE
  5
36
102
{ACAD_REACTORS
330
28
102
}
330
28
100
AcDbVisualStyle
  2

 70
    14
177
     3
291
     1
 70
    58
 90
        2
176
     1
 90
        2
176
     1
 90
        0
176
     1
 90
        0
176
     1
 40
0.6
176
     1
 40
30.0
176
     1
 62
     7
176
     1
 90
        1
176
     1
 90
        4
176
     1
 62
     7
176
     1
 62
   257
176
     1
 90
        7
176
     1
 90
        7
176
     1
 40
1.0
176
     1
 90
        8
176
     1
 62
     7
176
     1
 40
1.0
176
     1
 90
        1
176
     1
 90
        6
176
     1
 90
        2
176
     1
 62
     7
176
     1
 90
        5
176
     1
 90
        0
176
     1
 90
        0
176
     1
290
     0
176
     1
 90
        1
176
     1
 40
0.0
176
     1
 90
        0
176
     1
290
     0
176
     1
290
     1
176
     1
290
     1
176
     1
290
     0
176
     1
290
     0
176
     1
290
     0
176
     1
290
     0
176
     1
290
     0
176
     1
290
     0
176
     1
 90
       50
176
     1
 40
0.0
176
     1
 40
1.0
176
     1
 90
        0
176
     1
 62
    18
420
        0
176
     1
 90
       50
176
     1
 90
        3
176
     1
 62
     5
420
      255
176
     1
290
     0
176
     1
 90
       50
176
     1
 90
       50
176
     1
 90
       50
176
     1
290
     0
176
     1
 90
       50
176
     1
 62
   256
176
     0
 40
1.0
176
     0
 90
        2
176
     1
  1
strokes_ogs.tif
176
     1
290
     0
176
     1
 40
1.0
176
     1
 40
1.0
176
     1
1001
ACAD
1000
AcDbSavedByObjectVersion
1070
     0
  0
VISUALSTYLE
  5
4086
102
{ACAD_REACTORS
330
28
102
}
330
28
100
AcDbVisualStyle
  2
OverhangOff
 70
    21
177
     3
291
     1
 70
    58
 90
        2
176
     0
 90
        2
176
     0
 90
        0
176
     0
 90
        0
176
     0
 40
0.6
176
     0
 40
30.0
176
     0
 62
     7
420
 16777215
176
     0
 90
        1
176
     0
 90
        4
176
     0
 62
     7
176
     0
 62
   257
176
     0
 90
        1
176
     0
 90
        1
176
     0
 40
1.0
176
     0
 90
        9
176
     2
 62
     7
176
     0
 40
1.0
176
     0
 90
        1
176
     0
 90
        6
176
     0
 90
        2
176
     0
 62
     7
176
     0
 90
        5
176
     0
 90
        0
176
     0
 90
        0
176
     0
290
     0
176
     0
 90
        1
176
     0
 40
0.0
176
     0
 90
        0
176
     0
290
     0
176
     1
290
     1
176
     1
290
     1
176
     1
290
     0
176
     1
290
     0
176
     1
290
     0
176
     1
290
     0
176
     1
290
     0
176
     1
290
     0
176
     1
 90
       50
176
     0
 40
0.0
176
     0
 40
1.0
176
     0
 90
        0
176
     0
 62
    18
420
        0
176
     0
 90
       50
176
     0
 90
        3
176
     0
 62
     5
420
      255
176
     0
290
     0
176
     1
 90
       50
176
     0
 90
       50
176
     0
 90
       50
176
     0
290
     0
176
     1
 90
       50
176
     0
 62
   256
176
     0
 40
1.0
176
     0
 90
        2
176
     0
  1
strokes_ogs.tif
176
     0
290
     0
176
     1
 40
1.0
176
     0
 40
1.0
176
     0
  0
VISUALSTYLE
  5
31
102
{ACAD_REACTORS
330
28
102
}
330
28
100
AcDbVisualStyle
  2

 70
     8
177
     3
291
     0
 70
    58
 90
        2
176
     1
 90
        2
176
     1
 90
        0
176
     1
 90
        0
176
     1
 40
0.6
176
     1
 40
30.0
176
     1
 62
     7
176
     1
 90
        1
176
     1
 90
        0
176
     1
 62
     7
176
     1
 62
   257
176
     1
 90
        1
176
     1
 90
        1
176
     1
 40
1.0
176
     1
 90
        8
176
     1
 62
     8
176
     1
 40
1.0
176
     1
 90
        1
176
     1
 90
        6
176
     1
 90
        2
176
     1
 62
     7
176
     1
 90
        5
176
     1
 90
        0
176
     1
 90
        0
176
     1
290
     0
176
     1
 90
       13
176
     1
 40
0.0
176
     1
 90
        0
176
     1
290
     0
176
     1
290
     1
176
     1
290
     1
176
     1
290
     0
176
     1
290
     0
176
     1
290
     0
176
     1
290
     0
176
     1
290
     0
176
     1
290
     0
176
     1
 90
       50
176
     1
 40
0.0
176
     1
 40
1.0
176
     1
 90
        0
176
     1
 62
    18
420
        0
176
     1
 90
       50
176
     1
 90
        3
176
     1
 62
     5
420
      255
176
     1
290
     0
176
     1
 90
       50
176
     1
 90
       50
176
     1
 90
       50
176
     1
290
     0
176
     1
 90
       50
176
     1
 62
   256
176
     0
 40
1.0
176
     0
 90
        2
176
     1
  1
strokes_ogs.tif
176
     1
290
     0
176
     1
 40
1.0
176
     1
 40
1.0
176
     1
1001
ACAD
1000
AcDbSavedByObjectVersion
1070
     0
  0
VISUALSTYLE
  5
4084
102
{ACAD_REACTORS
330
28
102
}
330
28
100
AcDbVisualStyle
  2
Shaded
 70
    27
177
     3
291
     0
 70
    58
 90
        2
176
     1
 90
        2
176
     1
 90
        1
176
     1
 90
        2
176
     1
 40
0.6
176
     1
 40
30.0
176
     1
 62
     7
420
 16777215
176
     1
 90
        0
176
     1
 90
        4
176
     1
 62
     7
176
     1
 62
   257
176
     1
 90
        1
176
     1
 90
        1
176
     1
 40
1.0
176
     1
 90
        8
176
     1
 62
   257
176
     1
 40
1.0
176
     1
 90
        1
176
     1
 90
        6
176
     1
 90
        2
176
     1
 62
     8
420
  7895160
176
     1
 90
        3
176
     1
 90
        0
176
     1
 90
        0
176
     1
290
     0
176
     1
 90
        5
176
     1
 40
0.0
176
     1
 90
        0
176
     1
290
     0
176
     1
290
     1
176
     1
290
     1
176
     1
290
     0
176
     1
290
     0
176
     1
290
     0
176
     1
290
     0
176
     1
290
     0
176
     1
290
     0
176
     1
 90
       50
176
     1
 40
0.0
176
     1
 40
1.0
176
     1
 90
        0
176
     1
 62
    18
420
        0
176
     1
 90
       50
176
     1
 90
        3
176
     1
 62
     5
420
      255
176
     1
290
     0
176
     1
 90
       50
176
     1
 90
       50
176
     1
 90
       50
176
     1
290
     0
176
     1
 90
       50
176
     1
 62
   256
176
     0
 40
1.0
176
     0
 90
        2
176
     1
  1
strokes_ogs.tif
176
     1
290
     0
176
     1
 40
1.0
176
     1
 40
1.0
176
     1
  0
VISUALSTYLE
  5
4083
102
{ACAD_REACTORS
330
28
102
}
330
28
100
AcDbVisualStyle
  2
Shaded with edges
 70
    26
177
     3
291
     0
 70
    58
 90
        2
176
     1
 90
        2
176
     1
 90
        1
176
     1
 90
        2
176
     1
 40
0.6
176
     1
 40
30.0
176
     1
 62
     7
420
 16777215
176
     1
 90
        1
176
     1
 90
        2
176
     1
 62
     7
176
     1
 62
   257
176
     1
 90
        2
176
     1
 90
        1
176
     1
 40
1.0
176
     1
 90
        8
176
     1
 62
   257
176
     1
 40
1.0
176
     1
 90
        1
176
     1
 90
        6
176
     1
 90
        2
176
     1
 62
     7
176
     1
 90
        3
176
     1
 90
        0
176
     1
 90
        0
176
     1
290
     0
176
     1
 90
        5
176
     1
 40
0.0
176
     1
 90
        0
176
     1
290
     0
176
     1
290
     1
176
     1
290
     1
176
     1
290
     0
176
     1
290
     0
176
     1
290
     0
176
     1
290
     0
176
     1
290
     0
176
     1
290
     0
176
     1
 90
       50
176
     1
 40
0.0
176
     1
 40
1.0
176
     1
 90
        0
176
     1
 62
    18
420
        0
176
     1
 90
       50
176
     1
 90
        3
176
     1
 62
     5
420
      255
176
     1
290
     0
176
     1
 90
       50
176
     1
 90
       50
176
     1
 90
       50
176
     1
290
     0
176
     1
 90
       50
176
     1
 62
   256
176
     0
 40
1.0
176
     0
 90
        2
176
     1
  1
strokes_ogs.tif
176
     1
290
     0
176
     1
 40
1.0
176
     1
 40
1.0
176
     1
  0
VISUALSTYLE
  5
4080
102
{ACAD_REACTORS
330
28
102
}
330
28
100
AcDbVisualStyle
  2
Shades of Gray
 70
    23
177
     3
291
     0
 70
    58
 90
        2
176
     1
 90
        2
176
     1
 90
        3
176
     1
 90
        0
176
     1
 40
0.6
176
     1
 40
30.0
176
     1
 62
     7
420
 16777215
176
     1
 90
        2
176
     1
 90
        2
176
     1
 62
     7
176
     1
 62
     7
176
     1
 90
        1
176
     1
 90
        1
176
     1
 40
40.0
176
     1
 90
        8
176
     1
 62
     7
176
     1
 40
1.0
176
     1
 90
        1
176
     1
 90
        6
176
     1
 90
        2
176
     1
 62
     7
176
     1
 90
        3
176
     1
 90
        0
176
     1
 90
        0
176
     1
290
     0
176
     1
 90
        1
176
     1
 40
0.0
176
     1
 90
        0
176
     1
290
     0
176
     1
290
     1
176
     1
290
     1
176
     1
290
     0
176
     1
290
     0
176
     1
290
     0
176
     1
290
     0
176
     1
290
     0
176
     1
290
     0
176
     1
 90
       50
176
     1
 40
0.0
176
     1
 40
1.0
176
     1
 90
        0
176
     1
 62
    18
420
        0
176
     1
 90
       50
176
     1
 90
        3
176
     1
 62
     5
420
      255
176
     1
290
     0
176
     1
 90
       50
176
     1
 90
       50
176
     1
 90
       50
176
     1
290
     0
176
     1
 90
       50
176
     1
 62
   256
176
     0
 40
1.0
176
     0
 90
        2
176
     1
  1
strokes_ogs.tif
176
     1
290
     0
176
     1
 40
1.0
176
     1
 40
1.0
176
     1
  0
VISUALSTYLE
  5
4081
102
{ACAD_REACTORS
330
28
102
}
330
28
100
AcDbVisualStyle
  2
Sketchy
 70
    24
177
     3
291
     0
 70
    58
 90
        1
176
     1
 90
        2
176
     1
 90
        2
176
     1
 90
        0
176
     1
 40
0.6
176
     1
 40
30.0
176
     1
 62
     7
420
 16777215
176
     1
 90
        2
176
     1
 90
        2
176
     1
 62
     7
176
     1
 62
     7
176
     1
 90
        1
176
     1
 90
        1
176
     1
 40
40.0
176
     1
 90
       11
176
     1
 62
     7
176
     1
 40
1.0
176
     1
 90
        1
176
     1
 90
        6
176
     1
 90
        2
176
     1
 62
     7
176
     1
 90
        6
176
     1
 90
        0
176
     1
 90
        0
176
     1
290
     0
176
     1
 90
        1
176
     1
 40
0.0
176
     1
 90
        0
176
     1
290
     0
176
     1
290
     1
176
     1
290
     1
176
     1
290
     0
176
     1
290
     0
176
     1
290
     0
176
     1
290
     0
176
     1
290
     0
176
     1
290
     0
176
     1
 90
       50
176
     1
 40
0.0
176
     1
 40
1.0
176
     1
 90
        0
176
     1
 62
    18
420
        0
176
     1
 90
       50
176
     1
 90
        3
176
     1
 62
     5
420
      255
176
     1
290
     0
176
     1
 90
       50
176
     1
 90
       50
176
     1
 90
       50
176
     1
290
     0
176
     1
 90
       50
176
     1
 62
   256
176
     0
 40
1.0
176
     0
 90
        2
176
     1
  1
strokes_ogs.tif
176
     1
290
     0
176
     1
 40
1.0
176
     1
 40
1.0
176
     1
  0
VISUALSTYLE
  5
35
102
{ACAD_REACTORS
330
28
102
}
330
28
100
AcDbVisualStyle
  2

 70
    13
177
     3
291
     1
 70
    58
 90
        2
176
     1
 90
        2
176
     1
 90
        0
176
     1
 90
        0
176
     1
 40
0.6
176
     1
 40
30.0
176
     1
 62
     7
176
     1
 90
        1
176
     1
 90
        4
176
     1
 62
     7
176
     1
 62
   257
176
     1
 90
        1
176
     1
 90
        1
176
     1
 40
1.0
176
     1
 90
       12
176
     1
 62
     7
176
     1
 40
1.0
176
     1
 90
        1
176
     1
 90
        6
176
     1
 90
        2
176
     1
 62
     7
176
     1
 90
        5
176
     1
 90
        0
176
     1
 90
        0
176
     1
290
     0
176
     1
 90
        1
176
     1
 40
0.0
176
     1
 90
        0
176
     1
290
     0
176
     1
290
     1
176
     1
290
     1
176
     1
290
     0
176
     1
290
     0
176
     1
290
     0
176
     1
290
     0
176
     1
290
     0
176
     1
290
     0
176
     1
 90
       50
176
     1
 40
0.0
176
     1
 40
1.0
176
     1
 90
        0
176
     1
 62
    18
420
        0
176
     1
 90
       50
176
     1
 90
        3
176
     1
 62
     5
420
      255
176
     1
290
     0
176
     1
 90
       50
176
     1
 90
       50
176
     1
 90
       50
176
     1
290
     0
176
     1
 90
       50
176
     1
 62
   256
176
     0
 40
1.0
176
     0
 90
        2
176
     1
  1
strokes_ogs.tif
176
     1
290
     0
176
     1
 40
1.0
176
     1
 40
1.0
176
     1
1001
ACAD
1000
AcDbSavedByObjectVersion
1070
     0
  0
VISUALSTYLE
  5
407E
102
{ACAD_REACTORS
330
28
102
}
330
28
100
AcDbVisualStyle
  2
Wireframe
 70
     5
177
     3
291
     0
 70
    58
 90
        0
176
     1
 90
        2
176
     1
 90
        0
176
     1
 90
        0
176
     1
 40
0.6
176
     1
 40
30.0
176
     1
 62
     7
420
 16777215
176
     1
 90
        1
176
     1
 90
        4
176
     1
 62
     7
176
     1
 62
   257
176
     1
 90
        1
176
     1
 90
        1
176
     1
 40
1.0
176
     1
 90
        0
176
     1
 62
   257
176
     1
 40
1.0
176
     1
 90
        1
176
     1
 90
        6
176
     1
 90
        2
176
     1
 62
     7
176
     1
 90
        3
176
     1
 90
        0
176
     1
 90
        0
176
     1
290
     0
176
     1
 90
        1
176
     1
 40
0.0
176
     1
 90
        0
176
     1
290
     0
176
     1
290
     1
176
     1
290
     1
176
     1
290
     0
176
     1
290
     0
176
     1
290
     0
176
     1
290
     0
176
     1
290
     0
176
     1
290
     0
176
     1
 90
       50
176
     1
 40
0.0
176
     1
 40
1.0
176
     1
 90
        0
176
     1
 62
    18
420
        0
176
     1
 90
       50
176
     1
 90
        3
176
     1
 62
     5
420
      255
176
     1
290
     0
176
     1
 90
       50
176
     1
 90
       50
176
     1
 90
       50
176
     1
290
     0
176
     1
 90
       50
176
     1
 62
   256
176
     0
 40
1.0
176
     0
 90
        2
176
     1
  1
strokes_ogs.tif
176
     1
290
     0
176
     1
 40
1.0
176
     1
 40
1.0
176
     1
  0
VISUALSTYLE
  5
4082
102
{ACAD_REACTORS
330
28
102
}
330
28
100
AcDbVisualStyle
  2
X-Ray
 70
    25
177
     3
291
     0
 70
    58
 90
        2
176
     1
 90
        2
176
     1
 90
        1
176
     1
 90
        1
176
     1
 40
0.5
176
     1
 40
30.0
176
     1
 62
     7
420
 16777215
176
     1
 90
        1
176
     1
 90
        0
176
     1
 62
     7
176
     1
 62
   257
176
     1
 90
        1
176
     1
 90
        1
176
     1
 40
1.0
176
     1
 90
        8
176
     1
 62
     7
176
     1
 40
1.0
176
     1
 90
        1
176
     1
 90
        6
176
     1
 90
        2
176
     1
 62
     7
176
     1
 90
        3
176
     1
 90
        0
176
     1
 90
        0
176
     1
290
     0
176
     1
 90
       13
176
     1
 40
0.0
176
     1
 90
        0
176
     1
290
     0
176
     1
290
     1
176
     1
290
     1
176
     1
290
     0
176
     1
290
     0
176
     1
290
     0
176
     1
290
     0
176
     1
290
     0
176
     1
290
     0
176
     1
 90
       50
176
     1
 40
0.0
176
     1
 40
1.0
176
     1
 90
        0
176
     1
 62
    18
420
        0
176
     1
 90
       50
176
     1
 90
        3
176
     1
 62
     5
420
      255
176
     1
290
     0
176
     1
 90
       50
176
     1
 90
       50
176
     1
 90
       50
176
     1
290
     0
176
     1
 90
       50
176
     1
 62
   256
176
     0
 40
1.0
176
     0
 90
        2
176
     1
  1
strokes_ogs.tif
176
     1
290
     0
176
     1
 40
1.0
176
     1
 40
1.0
176
     1
  0
DICTIONARYVAR
  5
4185
102
{ACAD_REACTORS
330
366A
102
}
330
366A
100
DictionaryVariables
280
     0
  1
1:1
  0
DICTIONARYVAR
  5
4181
102
{ACAD_REACTORS
330
366A
102
}
330
366A
100
DictionaryVariables
280
     0
  1
STANDARD
  0
DICTIONARYVAR
  5
366B
102
{ACAD_REACTORS
330
366A
102
}
330
366A
100
DictionaryVariables
280
     0
  1
STANDARD
  0
DICTIONARYVAR
  5
4182
102
{ACAD_REACTORS
330
366A
102
}
330
366A
100
DictionaryVariables
280
     0
  1
Imperial24
  0
DICTIONARYVAR
  5
4183
102
{ACAD_REACTORS
330
366A
102
}
330
366A
100
DictionaryVariables
280
     0
  1
Imperial24
  0
DICTIONARYVAR
  5
4042
102
{ACAD_REACTORS
330
366A
102
}
330
366A
100
DictionaryVariables
280
     0
  1
2
  0
DICTIONARYVAR
  5
4041
102
{ACAD_REACTORS
330
366A
102
}
330
366A
100
DictionaryVariables
280
     0
  1
2
  0
DICTIONARYVAR
  5
4040
102
{ACAD_REACTORS
330
366A
102
}
330
366A
100
DictionaryVariables
280
     0
  1
1
  0
DICTIONARYVAR
  5
403F
102
{ACAD_REACTORS
330
366A
102
}
330
366A
100
DictionaryVariables
280
     0
  1
0
  0
DICTIONARYVAR
  5
4187
102
{ACAD_REACTORS
330
366A
102
}
330
366A
100
DictionaryVariables
280
     0
  1
1
  0
DICTIONARYVAR
  5
4188
102
{ACAD_REACTORS
330
366A
102
}
330
366A
100
DictionaryVariables
280
     0
  1
15
  0
DICTIONARYVAR
  5
4186
102
{ACAD_REACTORS
330
366A
102
}
330
366A
100
DictionaryVariables
280
     0
  1
0
  0
DICTIONARYVAR
  5
4184
102
{ACAD_REACTORS
330
366A
102
}
330
366A
100
DictionaryVariables
280
     0
  1
0
  0
DICTIONARYVAR
  5
403E
102
{ACAD_REACTORS
330
366A
102
}
330
366A
100
DictionaryVariables
280
     0
  1
127
  0
DICTIONARY
  5
418D
330
409F
100
AcDbDictionary
280
     1
281
     1
  3
ACAD_XREC_ROUNDTRIP
360
418E
  0
DICTIONARY
  5
404E
330
3511
100
AcDbDictionary
280
     1
281
     1
  3
ACAD_XREC_ROUNDTRIP
360
404F
  0
DICTIONARY
  5
404C
330
3510
100
AcDbDictionary
280
     1
281
     1
  3
ACAD_XREC_ROUNDTRIP
360
404D
  0
DICTIONARY
  5
4050
330
3512
100
AcDbDictionary
280
     1
281
     1
  3
ACAD_XREC_ROUNDTRIP
360
4051
  0
DICTIONARY
  5
418B
330
409D
100
AcDbDictionary
280
     1
281
     1
  3
ACAD_XREC_ROUNDTRIP
360
418C
  0
DICTIONARY
  5
4189
330
3514
100
AcDbDictionary
280
     1
281
     1
  3
ACAD_ROUNDTRIP_2008_TABLESTYLE_CELLSTYLEMAP
360
418A
  0
XRECORD
  5
418E
102
{ACAD_REACTORS
330
418D
102
}
330
418D
100
AcDbXrecord
280
     1
102
DISPLAYNAME
  1
Imperial24
102
FLAGS
 90
        0
  0
XRECORD
  5
404F
102
{ACAD_REACTORS
330
404E
102
}
330
404E
100
AcDbXrecord
280
     1
102
MATERIAL
148
0.0
149
0.0
149
0.0
 93
        0
 94
       63
282
     0
 72
     1
 77
     1
171
     1
175
     1
179
     1
273
     0
  0
XRECORD
  5
404D
102
{ACAD_REACTORS
330
404C
102
}
330
404C
100
AcDbXrecord
280
     1
102
MATERIAL
148
0.0
149
0.0
149
0.0
 93
        0
 94
       63
282
     0
 72
     1
 77
     1
171
     1
175
     1
179
     1
273
     0
  0
XRECORD
  5
4051
102
{ACAD_REACTORS
330
4050
102
}
330
4050
100
AcDbXrecord
280
     1
102
MATERIAL
148
0.0
149
0.0
149
0.0
 93
        0
 94
       63
282
     0
 72
     1
 77
     1
171
     1
175
     1
179
     1
273
     0
  0
XRECORD
  5
418C
102
{ACAD_REACTORS
330
418B
102
}
330
418B
100
AcDbXrecord
280
     1
102
DISPLAYNAME
  1
Imperial24
102
FLAGS
 90
        0
  0
CELLSTYLEMAP
  5
418A
102
{ACAD_REACTORS
330
4189
102
}
330
4189
100
AcDbCellStyleMap
 90
        3
300
CELLSTYLE
  1
TABLEFORMAT_BEGIN
 90
        5
170
     1
 91
        0
 92
    32768
 62
   257
 93
        1
300
CONTENTFORMAT
  1
CONTENTFORMAT_BEGIN
 90
        0
 91
        0
 92
      512
 93
        0
300

 40
0.0
140
1.0
 94
        5
 62
     0
340
11
144
0.25
309
CONTENTFORMAT_END
171
     0
 94
        6
 95
        1
302
GRIDFORMAT
  1
GRIDFORMAT_BEGIN
 90
        0
 91
        1
 62
     0
 92
       -2
340
0
 93
        0
 40
0.045
309
GRIDFORMAT_END
 95
        2
302
GRIDFORMAT
  1
GRIDFORMAT_BEGIN
 90
        0
 91
        1
 62
     0
 92
       -2
340
0
 93
        0
 40
0.045
309
GRIDFORMAT_END
 95
        4
302
GRIDFORMAT
  1
GRIDFORMAT_BEGIN
 90
        0
 91
        1
 62
     0
 92
       -2
340
0
 93
        0
 40
0.045
309
GRIDFORMAT_END
 95
        8
302
GRIDFORMAT
  1
GRIDFORMAT_BEGIN
 90
        0
 91
        1
 62
     0
 92
       -2
340
0
 93
        0
 40
0.045
309
GRIDFORMAT_END
 95
       16
302
GRIDFORMAT
  1
GRIDFORMAT_BEGIN
 90
        0
 91
        1
 62
     0
 92
       -2
340
0
 93
        0
 40
0.045
309
GRIDFORMAT_END
 95
       32
302
GRIDFORMAT
  1
GRIDFORMAT_BEGIN
 90
        0
 91
        1
 62
     0
 92
       -2
340
0
 93
        0
 40
0.045
309
GRIDFORMAT_END
309
TABLEFORMAT_END
  1
CELLSTYLE_BEGIN
 90
        1
 91
        1
300
_TITLE
309
CELLSTYLE_END
300
CELLSTYLE
  1
TABLEFORMAT_BEGIN
 90
        5
170
     1
 91
        0
 92
        0
 62
   257
 93
        1
300
CONTENTFORMAT
  1
CONTENTFORMAT_BEGIN
 90
        0
 91
        0
 92
      512
 93
        0
300

 40
0.0
140
1.0
 94
        5
 62
     0
340
11
144
0.18
309
CONTENTFORMAT_END
171
     0
 94
        6
 95
        1
302
GRIDFORMAT
  1
GRIDFORMAT_BEGIN
 90
        0
 91
        1
 62
     0
 92
       -2
340
0
 93
        0
 40
0.045
309
GRIDFORMAT_END
 95
        2
302
GRIDFORMAT
  1
GRIDFORMAT_BEGIN
 90
        0
 91
        1
 62
     0
 92
       -2
340
0
 93
        0
 40
0.045
309
GRIDFORMAT_END
 95
        4
302
GRIDFORMAT
  1
GRIDFORMAT_BEGIN
 90
        0
 91
        1
 62
     0
 92
       -2
340
0
 93
        0
 40
0.045
309
GRIDFORMAT_END
 95
        8
302
GRIDFORMAT
  1
GRIDFORMAT_BEGIN
 90
        0
 91
        1
 62
     0
 92
       -2
340
0
 93
        0
 40
0.045
309
GRIDFORMAT_END
 95
       16
302
GRIDFORMAT
  1
GRIDFORMAT_BEGIN
 90
        0
 91
        1
 62
     0
 92
       -2
340
0
 93
        0
 40
0.045
309
GRIDFORMAT_END
 95
       32
302
GRIDFORMAT
  1
GRIDFORMAT_BEGIN
 90
        0
 91
        1
 62
     0
 92
       -2
340
0
 93
        0
 40
0.045
309
GRIDFORMAT_END
309
TABLEFORMAT_END
  1
CELLSTYLE_BEGIN
 90
        2
 91
        1
300
_HEADER
309
CELLSTYLE_END
300
CELLSTYLE
  1
TABLEFORMAT_BEGIN
 90
        5
170
     1
 91
        0
 92
        0
 62
   257
 93
        1
300
CONTENTFORMAT
  1
CONTENTFORMAT_BEGIN
 90
        0
 91
        0
 92
      512
 93
        0
300

 40
0.0
140
1.0
 94
        2
 62
     0
340
11
144
0.18
309
CONTENTFORMAT_END
171
     0
 94
        6
 95
        1
302
GRIDFORMAT
  1
GRIDFORMAT_BEGIN
 90
        0
 91
        1
 62
     0
 92
       -2
340
0
 93
        0
 40
0.045
309
GRIDFORMAT_END
 95
        2
302
GRIDFORMAT
  1
GRIDFORMAT_BEGIN
 90
        0
 91
        1
 62
     0
 92
       -2
340
0
 93
        0
 40
0.045
309
GRIDFORMAT_END
 95
        4
302
GRIDFORMAT
  1
GRIDFORMAT_BEGIN
 90
        0
 91
        1
 62
     0
 92
       -2
340
0
 93
        0
 40
0.045
309
GRIDFORMAT_END
 95
        8
302
GRIDFORMAT
  1
GRIDFORMAT_BEGIN
 90
        0
 91
        1
 62
     0
 92
       -2
340
0
 93
        0
 40
0.045
309
GRIDFORMAT_END
 95
       16
302
GRIDFORMAT
  1
GRIDFORMAT_BEGIN
 90
        0
 91
        1
 62
     0
 92
       -2
340
0
 93
        0
 40
0.045
309
GRIDFORMAT_END
 95
       32
302
GRIDFORMAT
  1
GRIDFORMAT_BEGIN
 90
        0
 91
        1
 62
     0
 92
       -2
340
0
 93
        0
 40
0.045
309
GRIDFORMAT_END
309
TABLEFORMAT_END
  1
CELLSTYLE_BEGIN
 90
        3
 91
        2
300
_DATA
309
CELLSTYLE_END
  0
ENDSEC
  0
EOF
