  0
SECTION
  2
HEADER
  9
$ACADVER
  1
AC1027
  9
$ACADMAINTVER
 70
   125
  9
$DWGCODEPAGE
  3
ANSI_1252
  9
$LASTSAVEDBY
  1
zoey
  9
$REQUIREDVERSIONS
160
                 0
  9
$INSBASE
 10
0.0
 20
0.0
 30
0.0
  9
$EXTMIN
 10
133.326612707996
 20
90.56099313588129
 30
-0.0015258207003583
  9
$EXTMAX
 10
1596.043957409276
 20
934.233627025956
 30
0.0000000349246037
  9
$LIMMIN
 10
0.0
 20
0.0
  9
$LIMMAX
 10
12.0
 20
9.0
  9
$ORTHOMODE
 70
     1
  9
$REGENMODE
 70
     1
  9
$FILLMODE
 70
     1
  9
$QTEXTMODE
 70
     0
  9
$MIRRTEXT
 70
     1
  9
$LTSCALE
 40
1.0
  9
$ATTMODE
 70
     1
  9
$TEXTSIZE
 40
0.2
  9
$TRACEWID
 40
0.05
  9
$TEXTSTYLE
  7
Standard
  9
$CLAYER
  8
0
  9
$CELTYPE
  6
ByLayer
  9
$CECOLOR
 62
   256
  9
$CELTSCALE
 40
1.0
  9
$DISPSILH
 70
     0
  9
$DIMSCALE
 40
1.0
  9
$DIMASZ
 40
0.18
  9
$DIMEXO
 40
0.0625
  9
$DIMDLI
 40
0.38
  9
$DIMRND
 40
0.0
  9
$DIMDLE
 40
0.0
  9
$DIMEXE
 40
0.18
  9
$DIMTP
 40
0.0
  9
$DIMTM
 40
0.0
  9
$DIMTXT
 40
0.18
  9
$DIMCEN
 40
0.09
  9
$DIMTSZ
 40
0.0
  9
$DIMTOL
 70
     0
  9
$DIMLIM
 70
     0
  9
$DIMTIH
 70
     1
  9
$DIMTOH
 70
     1
  9
$DIMSE1
 70
     0
  9
$DIMSE2
 70
     0
  9
$DIMTAD
 70
     0
  9
$DIMZIN
 70
     0
  9
$DIMBLK
  1

  9
$DIMASO
 70
     1
  9
$DIMSHO
 70
     1
  9
$DIMPOST
  1

  9
$DIMAPOST
  1

  9
$DIMALT
 70
     0
  9
$DIMALTD
 70
     2
  9
$DIMALTF
 40
25.4
  9
$DIMLFAC
 40
1.0
  9
$DIMTOFL
 70
     0
  9
$DIMTVP
 40
0.0
  9
$DIMTIX
 70
     0
  9
$DIMSOXD
 70
     0
  9
$DIMSAH
 70
     0
  9
$DIMBLK1
  1

  9
$DIMBLK2
  1

  9
$DIMSTYLE
  2
Standard
  9
$DIMCLRD
 70
     0
  9
$DIMCLRE
 70
     0
  9
$DIMCLRT
 70
     0
  9
$DIMTFAC
 40
1.0
  9
$DIMGAP
 40
0.09
  9
$DIMJUST
 70
     0
  9
$DIMSD1
 70
     0
  9
$DIMSD2
 70
     0
  9
$DIMTOLJ
 70
     1
  9
$DIMTZIN
 70
     0
  9
$DIMALTZ
 70
     0
  9
$DIMALTTZ
 70
     0
  9
$DIMUPT
 70
     0
  9
$DIMDEC
 70
     4
  9
$DIMTDEC
 70
     4
  9
$DIMALTU
 70
     2
  9
$DIMALTTD
 70
     2
  9
$DIMTXSTY
  7
Standard
  9
$DIMAUNIT
 70
     0
  9
$DIMADEC
 70
     0
  9
$DIMALTRND
 40
0.0
  9
$DIMAZIN
 70
     0
  9
$DIMDSEP
 70
    46
  9
$DIMATFIT
 70
     3
  9
$DIMFRAC
 70
     0
  9
$DIMLDRBLK
  1

  9
$DIMLUNIT
 70
     2
  9
$DIMLWD
 70
    -2
  9
$DIMLWE
 70
    -2
  9
$DIMTMOVE
 70
     0
  9
$DIMFXL
 40
1.0
  9
$DIMFXLON
 70
     0
  9
$DIMJOGANG
 40
0.7853981633974483
  9
$DIMTFILL
 70
     0
  9
$DIMTFILLCLR
 70
     0
  9
$DIMARCSYM
 70
     0
  9
$DIMLTYPE
  6

  9
$DIMLTEX1
  6

  9
$DIMLTEX2
  6

  9
$DIMTXTDIRECTION
 70
     0
  9
$LUNITS
 70
     2
  9
$LUPREC
 70
     4
  9
$SKETCHINC
 40
0.1
  9
$FILLETRAD
 40
0.0
  9
$AUNITS
 70
     0
  9
$AUPREC
 70
     0
  9
$MENU
  1
.
  9
$ELEVATION
 40
0.0
  9
$PELEVATION
 40
0.0
  9
$THICKNESS
 40
0.0
  9
$LIMCHECK
 70
     0
  9
$CHAMFERA
 40
0.5
  9
$CHAMFERB
 40
0.5
  9
$CHAMFERC
 40
1.0
  9
$CHAMFERD
 40
0.0
  9
$SKPOLY
 70
     0
  9
$TDCREATE
 40
2455841.106793982
  9
$TDUCREATE
 40
2455841.273466887
  9
$TDUPDATE
 40
2458962.603055556
  9
$TDUUPDATE
 40
2458962.769722222
  9
$TDINDWG
 40
0.0670006250
  9
$TDUSRTIMER
 40
0.0670006250
  9
$USRTIMER
 70
     1
  9
$ANGBASE
 50
0.0
  9
$ANGDIR
 70
     0
  9
$PDMODE
 70
     0
  9
$PDSIZE
 40
0.0
  9
$PLINEWID
 40
0.0
  9
$SPLFRAME
 70
     0
  9
$SPLINETYPE
 70
     6
  9
$SPLINESEGS
 70
     8
  9
$HANDSEED
  5
42F1
  9
$SURFTAB1
 70
     6
  9
$SURFTAB2
 70
     6
  9
$SURFTYPE
 70
     6
  9
$SURFU
 70
     6
  9
$SURFV
 70
     6
  9
$UCSBASE
  2

  9
$UCSNAME
  2

  9
$UCSORG
 10
0.0
 20
0.0
 30
0.0
  9
$UCSXDIR
 10
1.0
 20
0.0
 30
0.0
  9
$UCSYDIR
 10
0.0
 20
1.0
 30
0.0
  9
$UCSORTHOREF
  2

  9
$UCSORTHOVIEW
 70
     0
  9
$UCSORGTOP
 10
0.0
 20
0.0
 30
0.0
  9
$UCSORGBOTTOM
 10
0.0
 20
0.0
 30
0.0
  9
$UCSORGLEFT
 10
0.0
 20
0.0
 30
0.0
  9
$UCSORGRIGHT
 10
0.0
 20
0.0
 30
0.0
  9
$UCSORGFRONT
 10
0.0
 20
0.0
 30
0.0
  9
$UCSORGBACK
 10
0.0
 20
0.0
 30
0.0
  9
$PUCSBASE
  2

  9
$PUCSNAME
  2

  9
$PUCSORG
 10
0.0
 20
0.0
 30
0.0
  9
$PUCSXDIR
 10
1.0
 20
0.0
 30
0.0
  9
$PUCSYDIR
 10
0.0
 20
1.0
 30
0.0
  9
$PUCSORTHOREF
  2

  9
$PUCSORTHOVIEW
 70
     0
  9
$PUCSORGTOP
 10
0.0
 20
0.0
 30
0.0
  9
$PUCSORGBOTTOM
 10
0.0
 20
0.0
 30
0.0
  9
$PUCSORGLEFT
 10
0.0
 20
0.0
 30
0.0
  9
$PUCSORGRIGHT
 10
0.0
 20
0.0
 30
0.0
  9
$PUCSORGFRONT
 10
0.0
 20
0.0
 30
0.0
  9
$PUCSORGBACK
 10
0.0
 20
0.0
 30
0.0
  9
$USERI1
 70
     0
  9
$USERI2
 70
     0
  9
$USERI3
 70
     0
  9
$USERI4
 70
     0
  9
$USERI5
 70
     0
  9
$USERR1
 40
0.0
  9
$USERR2
 40
0.0
  9
$USERR3
 40
0.0
  9
$USERR4
 40
0.0
  9
$USERR5
 40
0.0
  9
$WORLDVIEW
 70
     1
  9
$SHADEDGE
 70
     3
  9
$SHADEDIF
 70
    70
  9
$TILEMODE
 70
     1
  9
$MAXACTVP
 70
    64
  9
$PINSBASE
 10
0.0
 20
0.0
 30
0.0
  9
$PLIMCHECK
 70
     0
  9
$PEXTMIN
 10
1.000000000000000E+20
 20
1.000000000000000E+20
 30
1.000000000000000E+20
  9
$PEXTMAX
 10
-1.000000000000000E+20
 20
-1.000000000000000E+20
 30
-1.000000000000000E+20
  9
$PLIMMIN
 10
0.0
 20
0.0
  9
$PLIMMAX
 10
12.0
 20
9.0
  9
$UNITMODE
 70
     0
  9
$VISRETAIN
 70
     1
  9
$PLINEGEN
 70
     0
  9
$PSLTSCALE
 70
     1
  9
$TREEDEPTH
 70
  3020
  9
$CMLSTYLE
  2
Standard
  9
$CMLJUST
 70
     0
  9
$CMLSCALE
 40
1.0
  9
$PROXYGRAPHICS
 70
     1
  9
$MEASUREMENT
 70
     0
  9
$CELWEIGHT
370
    -1
  9
$ENDCAPS
280
     0
  9
$JOINSTYLE
280
     0
  9
$LWDISPLAY
290
     0
  9
$INSUNITS
 70
     1
  9
$HYPERLINKBASE
  1

  9
$STYLESHEET
  1
MONOCHROME.CTB
  9
$XEDIT
290
     1
  9
$CEPSNTYPE
380
     0
  9
$PSTYLEMODE
290
     1
  9
$FINGERPRINTGUID
  2
{168A8766-4015-4ABD-915A-AD1ECBE2E3C2}
  9
$VERSIONGUID
  2
{DC5083A1-7511-6449-BCE3-951B06AE6B8F}
  9
$EXTNAMES
290
     1
  9
$PSVPSCALE
 40
0.0
  9
$OLESTARTUP
290
     0
  9
$SORTENTS
280
   127
  9
$INDEXCTL
280
     0
  9
$HIDETEXT
280
     1
  9
$XCLIPFRAME
280
     2
  9
$HALOGAP
280
     0
  9
$OBSCOLOR
 70
   257
  9
$OBSLTYPE
280
     0
  9
$INTERSECTIONDISPLAY
280
     0
  9
$INTERSECTIONCOLOR
 70
   257
  9
$DIMASSOC
280
     2
  9
$PROJECTNAME
  1

  9
$CAMERADISPLAY
290
     0
  9
$LENSLENGTH
 40
50.0
  9
$CAMERAHEIGHT
 40
0.0
  9
$STEPSPERSEC
 40
2.0
  9
$STEPSIZE
 40
6.0
  9
$3DDWFPREC
 40
2.0
  9
$PSOLWIDTH
 40
0.25
  9
$PSOLHEIGHT
 40
4.0
  9
$LOFTANG1
 40
1.570796326794896
  9
$LOFTANG2
 40
1.570796326794896
  9
$LOFTMAG1
 40
0.0
  9
$LOFTMAG2
 40
0.0
  9
$LOFTPARAM
 70
     7
  9
$LOFTNORMALS
280
     1
  9
$LATITUDE
 40
37.795
  9
$LONGITUDE
 40
-122.394
  9
$NORTHDIRECTION
 40
0.0
  9
$TIMEZONE
 70
 -8000
  9
$LIGHTGLYPHDISPLAY
280
     1
  9
$TILEMODELIGHTSYNCH
280
     1
  9
$CMATERIAL
347
3510
  9
$SOLIDHIST
280
     0
  9
$SHOWHIST
280
     1
  9
$DWFFRAME
280
     2
  9
$DGNFRAME
280
     2
  9
$REALWORLDSCALE
290
     1
  9
$INTERFERECOLOR
 62
   256
  9
$INTERFEREOBJVS
345
31
  9
$INTERFEREVPVS
346
4220
  9
$CSHADOW
280
     0
  9
$SHADOWPLANELOCATION
 40
0.0
  0
ENDSEC
  0
SECTION
  2
CLASSES
  0
CLASS
  1
ACDBDICTIONARYWDFLT
  2
AcDbDictionaryWithDefault
  3
ObjectDBX Classes
 90
        0
 91
        1
280
     0
281
     0
  0
CLASS
  1
VISUALSTYLE
  2
AcDbVisualStyle
  3
ObjectDBX Classes
 90
     4095
 91
       26
280
     0
281
     0
  0
CLASS
  1
DIMASSOC
  2
AcDbDimAssoc
  3
"AcDbDimAssoc|Product Desc:     AcDim ARX App For Dimension|Company:          Autodesk, Inc.|WEB Address:      www.autodesk.com"
 90
        0
 91
        0
280
     0
281
     0
  0
CLASS
  1
MATERIAL
  2
AcDbMaterial
  3
ObjectDBX Classes
 90
     1153
 91
        3
280
     0
281
     0
  0
CLASS
  1
TABLESTYLE
  2
AcDbTableStyle
  3
ObjectDBX Classes
 90
     4095
 91
        1
280
     0
281
     0
  0
CLASS
  1
DICTIONARYVAR
  2
AcDbDictionaryVar
  3
ObjectDBX Classes
 90
        0
 91
       22
280
     0
281
     0
  0
CLASS
  1
SORTENTSTABLE
  2
AcDbSortentsTable
  3
ObjectDBX Classes
 90
        0
 91
        0
280
     0
281
     0
  0
CLASS
  1
SCALE
  2
AcDbScale
  3
ObjectDBX Classes
 90
     1153
 91
       17
280
     0
281
     0
  0
CLASS
  1
MLEADERSTYLE
  2
AcDbMLeaderStyle
  3
ACDB_MLEADERSTYLE_CLASS
 90
     4095
 91
        1
280
     0
281
     0
  0
CLASS
  1
ACDBSECTIONVIEWSTYLE
  2
AcDbSectionViewStyle
  3
ObjectDBX Classes
 90
     1025
 91
        1
280
     0
281
     0
  0
CLASS
  1
ACDBDETAILVIEWSTYLE
  2
AcDbDetailViewStyle
  3
ObjectDBX Classes
 90
     1025
 91
        1
280
     0
281
     0
  0
CLASS
  1
EXACXREFPANELOBJECT
  2
ExAcXREFPanelObject
  3
EXAC_ESW
 90
     1025
 91
        1
280
     0
281
     0
  0
CLASS
  1
NPOCOLLECTION
  2
AcDbImpNonPersistentObjectsCollection
  3
ObjectDBX Classes
 90
     1153
 91
        1
280
     0
281
     0
  0
CLASS
  1
CELLSTYLEMAP
  2
AcDbCellStyleMap
  3
ObjectDBX Classes
 90
     1152
 91
        1
280
     0
281
     0
  0
ENDSEC
  0
SECTION
  2
TABLES
  0
TABLE
  2
VPORT
  5
8
330
0
100
AcDbSymbolTable
 70
     1
1001
ACAD
1000
DbSaveVer
1071
        8
  0
VPORT
  5
27
330
8
100
AcDbSymbolTableRecord
100
AcDbViewportTableRecord
  2
*Active
 70
     0
 10
0.0
 20
0.0
 11
1.0
 21
1.0
 12
663.2284185667652
 22
467.116813512978
 13
0.0
 23
0.0
 14
0.5
 24
0.5
 15
0.5
 25
0.5
 16
0.0
 26
0.0
 36
1.0
 17
0.0
 27
0.0
 37
0.0
 40
942.1732895785844
 41
2.119148936170212
 42
50.0
 43
0.0
 44
0.0
 50
0.0
 51
0.0
 71
     0
 72
   100
 73
     1
 74
     3
 75
     1
 76
     0
 77
     0
 78
     0
281
     0
 65
     1
110
0.0
120
0.0
130
0.0
111
1.0
121
0.0
131
0.0
112
0.0
122
1.0
132
0.0
 79
     0
146
0.0
348
2D
 60
     3
 61
     5
292
     1
282
     1
141
0.0
142
0.0
 63
   250
421
  3355443
1001
ACAD_NAV_VCDISPLAY
1070
     3
  0
ENDTAB
  0
TABLE
  2
LTYPE
  5
5
330
0
100
AcDbSymbolTable
 70
     7
  0
LTYPE
  5
14
330
5
100
AcDbSymbolTableRecord
100
AcDbLinetypeTableRecord
  2
ByBlock
 70
     0
  3

 72
    65
 73
     0
 40
0.0
  0
LTYPE
  5
15
330
5
100
AcDbSymbolTableRecord
100
AcDbLinetypeTableRecord
  2
ByLayer
 70
     0
  3

 72
    65
 73
     0
 40
0.0
  0
LTYPE
  5
16
330
5
100
AcDbSymbolTableRecord
100
AcDbLinetypeTableRecord
  2
Continuous
 70
     0
  3
Solid line
 72
    65
 73
     0
 40
0.0
  0
LTYPE
  5
5B
330
5
100
AcDbSymbolTableRecord
100
AcDbLinetypeTableRecord
  2
CENTERX2
 70
     0
  3
Center (2x) ________  __  ________  __  _____
 72
    65
 73
     4
 40
101.6
 49
63.5
 74
     4
 75
     0
340
0
 46
1.0
 50
0.0
 44
0.0
 45
0.0
 49
-12.7
 74
     4
 75
     0
340
0
 46
1.0
 50
0.0
 44
0.0
 45
0.0
 49
12.7
 74
     4
 75
     0
340
0
 46
1.0
 50
0.0
 44
0.0
 45
0.0
 49
-12.7
 74
     4
 75
     0
340
0
 46
1.0
 50
0.0
 44
0.0
 45
0.0
  0
LTYPE
  5
192
330
5
100
AcDbSymbolTableRecord
100
AcDbLinetypeTableRecord
  2
CENTER
 70
     0
  3
Center ____ _ ____ _ ____ _ ____ _ ____ _ ____
 72
    65
 73
     4
 40
50.8
 49
31.75
 74
     4
 75
     0
340
0
 46
1.0
 50
0.0
 44
0.0
 45
0.0
 49
-6.349999999999998
 74
     4
 75
     0
340
0
 46
1.0
 50
0.0
 44
0.0
 45
0.0
 49
6.349999999999998
 74
     4
 75
     0
340
0
 46
1.0
 50
0.0
 44
0.0
 45
0.0
 49
-6.349999999999998
 74
     4
 75
     0
340
0
 46
1.0
 50
0.0
 44
0.0
 45
0.0
  0
LTYPE
  5
112E
330
5
100
AcDbSymbolTableRecord
100
AcDbLinetypeTableRecord
  2
DASHED
 70
     0
  3
Dashed __ __ __ __ __ __ __ __ __ __ __ __ __ _
 72
    65
 73
     2
 40
19.05
 49
12.7
 74
     4
 75
     0
340
0
 46
1.0
 50
0.0
 44
0.0
 45
0.0
 49
-6.349999999999998
 74
     4
 75
     0
340
0
 46
1.0
 50
0.0
 44
0.0
 45
0.0
  0
LTYPE
  5
121B
330
5
100
AcDbSymbolTableRecord
100
AcDbLinetypeTableRecord
  2
ACAD_ISO02W100
 70
     0
  3
ISO dash __ __ __ __ __ __ __ __ __ __ __ __ __
 72
    65
 73
     2
 40
15.0
 49
12.0
 74
     4
 75
     0
340
0
 46
1.0
 50
0.0
 44
0.0
 45
0.0
 49
-3.0
 74
     4
 75
     0
340
0
 46
1.0
 50
0.0
 44
0.0
 45
0.0
  0
LTYPE
  5
121C
330
5
100
AcDbSymbolTableRecord
100
AcDbLinetypeTableRecord
  2
DIVIDE
 70
     0
  3
Divide ____ . . ____ . . ____ . . ____ . . ____
 72
    65
 73
     6
 40
31.75
 49
12.7
 74
     4
 75
     0
340
0
 46
1.0
 50
0.0
 44
0.0
 45
0.0
 49
-6.349999999999998
 74
     4
 75
     0
340
0
 46
1.0
 50
0.0
 44
0.0
 45
0.0
 49
0.0
 74
     4
 75
     0
340
0
 46
1.0
 50
0.0
 44
0.0
 45
0.0
 49
-6.349999999999998
 74
     4
 75
     0
340
0
 46
1.0
 50
0.0
 44
0.0
 45
0.0
 49
0.0
 74
     4
 75
     0
340
0
 46
1.0
 50
0.0
 44
0.0
 45
0.0
 49
-6.349999999999998
 74
     4
 75
     0
340
0
 46
1.0
 50
0.0
 44
0.0
 45
0.0
  0
ENDTAB
  0
TABLE
  2
LAYER
  5
2
102
{ACAD_XDICTIONARY
360
36E2
102
}
330
0
100
AcDbSymbolTable
 70
    17
  0
LAYER
  5
10
102
{ACAD_XDICTIONARY
360
42C2
102
}
330
2
100
AcDbSymbolTableRecord
100
AcDbLayerTableRecord
  2
0
 70
     0
 62
     7
  6
Continuous
370
    -3
390
F
347
3512
348
0
  0
LAYER
  5
5C
102
{ACAD_XDICTIONARY
360
42C4
102
}
330
2
100
AcDbSymbolTableRecord
100
AcDbLayerTableRecord
  2
粗实线
 70
     0
 62
     7
  6
Continuous
370
    30
390
F
347
3512
348
0
1001
AcAecLayerStandard
1000

1000

  0
LAYER
  5
5D
102
{ACAD_XDICTIONARY
360
42C6
102
}
330
2
100
AcDbSymbolTableRecord
100
AcDbLayerTableRecord
  2
中心线
 70
     0
 62
     1
  6
CENTERX2
370
    15
390
F
347
3512
348
0
1001
AcAecLayerStandard
1000

1000

  0
LAYER
  5
5E
102
{ACAD_XDICTIONARY
360
42C8
102
}
330
2
100
AcDbSymbolTableRecord
100
AcDbLayerTableRecord
  2
标注
 70
     0
 62
     4
  6
Continuous
370
    15
390
F
347
3512
348
0
1001
AcAecLayerStandard
1000

1000

  0
LAYER
  5
5F
330
2
100
AcDbSymbolTableRecord
100
AcDbLayerTableRecord
  2
Defpoints
 70
     0
 62
     7
  6
Continuous
290
     0
370
    -3
390
F
347
3512
348
0
  0
LAYER
  5
118
102
{ACAD_XDICTIONARY
360
42CA
102
}
330
2
100
AcDbSymbolTableRecord
100
AcDbLayerTableRecord
  2
图层1粗线
 70
     0
 62
     7
  6
Continuous
370
    -3
390
F
347
3512
348
0
1001
AcAecLayerStandard
1000

1000

  0
LAYER
  5
193
102
{ACAD_XDICTIONARY
360
42CC
102
}
330
2
100
AcDbSymbolTableRecord
100
AcDbLayerTableRecord
  2
细实线
 70
     0
 62
     3
  6
Continuous
370
    15
390
F
347
3512
348
0
1001
AcAecLayerStandard
1000

1000

  0
LAYER
  5
357
102
{ACAD_XDICTIONARY
360
42CE
102
}
330
2
100
AcDbSymbolTableRecord
100
AcDbLayerTableRecord
  2
图层2
 70
     0
 62
     7
  6
Continuous
370
    30
390
F
347
3512
348
0
1001
AcAecLayerStandard
1000

1000

  0
LAYER
  5
358
102
{ACAD_XDICTIONARY
360
42D0
102
}
330
2
100
AcDbSymbolTableRecord
100
AcDbLayerTableRecord
  2
图层3
 70
     0
 62
     7
  6
Continuous
370
    18
390
F
347
3512
348
0
1001
AcAecLayerStandard
1000

1000

  0
LAYER
  5
4E7
102
{ACAD_XDICTIONARY
360
42D2
102
}
330
2
100
AcDbSymbolTableRecord
100
AcDbLayerTableRecord
  2
文字
 70
     0
 62
     1
  6
Continuous
370
    15
390
F
347
3512
348
0
1001
AcAecLayerStandard
1000

1000

  0
LAYER
  5
4E8
102
{ACAD_XDICTIONARY
360
42D4
102
}
330
2
100
AcDbSymbolTableRecord
100
AcDbLayerTableRecord
  2
不可见
 70
     0
 62
     2
  6
Continuous
290
     0
370
    15
390
F
347
3512
348
0
1001
AcAecLayerStandard
1000

1000

  0
LAYER
  5
4E9
102
{ACAD_XDICTIONARY
360
42D6
102
}
330
2
100
AcDbSymbolTableRecord
100
AcDbLayerTableRecord
  2
图层2细线
 70
     0
 62
     3
  6
Continuous
370
    -3
390
F
347
3512
348
0
1001
AcAecLayerStandard
1000

1000

  0
LAYER
  5
4EA
102
{ACAD_XDICTIONARY
360
42D8
102
}
330
2
100
AcDbSymbolTableRecord
100
AcDbLayerTableRecord
  2
图框线
 70
     0
 62
     7
  6
Continuous
370
    13
390
F
347
3512
348
0
1001
AcAecLayerStandard
1000

1000

  0
LAYER
  5
4EB
102
{ACAD_XDICTIONARY
360
42DA
102
}
330
2
100
AcDbSymbolTableRecord
100
AcDbLayerTableRecord
  2
图层 1
 70
     0
 62
     7
  6
Continuous
370
    -3
390
F
347
3512
348
0
  0
LAYER
  5
112F
102
{ACAD_XDICTIONARY
360
42DC
102
}
330
2
100
AcDbSymbolTableRecord
100
AcDbLayerTableRecord
  2
图层1
 70
     0
 62
     7
  6
DASHED
370
    25
390
F
347
3512
348
0
1001
AcAecLayerStandard
1000

1000

  0
LAYER
  5
121D
102
{ACAD_XDICTIONARY
360
42DE
102
}
330
2
100
AcDbSymbolTableRecord
100
AcDbLayerTableRecord
  2
虚线
 70
     0
 62
     2
  6
ACAD_ISO02W100
370
    15
390
F
347
3512
348
0
1001
AcAecLayerStandard
1000

1000

  0
LAYER
  5
121E
102
{ACAD_XDICTIONARY
360
42E0
102
}
330
2
100
AcDbSymbolTableRecord
100
AcDbLayerTableRecord
  2
剖切线
 70
     0
 62
   241
  6
Continuous
370
    15
390
F
347
3512
348
0
1001
AcAecLayerStandard
1000

1000

  0
ENDTAB
  0
TABLE
  2
STYLE
  5
3
330
0
100
AcDbSymbolTable
 70
     5
  0
STYLE
  5
11
330
3
100
AcDbSymbolTableRecord
100
AcDbTextStyleTableRecord
  2
Standard
 70
     0
 40
0.0
 41
1.0
 50
0.0
 71
     0
 42
0.2
  3
txt
  4

  0
STYLE
  5
5A
330
3
100
AcDbSymbolTableRecord
100
AcDbTextStyleTableRecord
  2
样式 8
 70
     0
 40
10.0
 41
0.7
 50
0.0
 71
     0
 42
10.0
  3
txt.shx
  4
gbcbig.shx
  0
STYLE
  5
117
330
3
100
AcDbSymbolTableRecord
100
AcDbTextStyleTableRecord
  2
样式 1
 70
     0
 40
5.0
 41
1.0
 50
0.0
 71
     0
 42
5.0
  3
txt.shx
  4
gbcbig.shx
  0
STYLE
  5
356
330
3
100
AcDbSymbolTableRecord
100
AcDbTextStyleTableRecord
  2
样式 2
 70
     0
 40
0.0
 41
0.35
 50
0.0
 71
     0
 42
2.5
  3
txt.shx
  4
gbcbig.shx
  0
STYLE
  5
4E6
330
3
100
AcDbSymbolTableRecord
100
AcDbTextStyleTableRecord
  2
样式 3
 70
     0
 40
3.5
 41
0.7
 50
0.0
 71
     0
 42
5.0
  3
txt.shx
  4
gbcbig.shx
  0
ENDTAB
  0
TABLE
  2
VIEW
  5
6
330
0
100
AcDbSymbolTable
 70
     0
  0
ENDTAB
  0
TABLE
  2
UCS
  5
7
330
0
100
AcDbSymbolTable
 70
     0
  0
ENDTAB
  0
TABLE
  2
APPID
  5
9
330
0
100
AcDbSymbolTable
 70
    46
  0
APPID
  5
12
330
9
100
AcDbSymbolTableRecord
100
AcDbRegAppTableRecord
  2
ACAD
 70
     0
  0
APPID
  5
3B
330
9
100
AcDbSymbolTableRecord
100
AcDbRegAppTableRecord
  2
ACAD_PSEXT
 70
     0
  0
APPID
  5
3C
330
9
100
AcDbSymbolTableRecord
100
AcDbRegAppTableRecord
  2
AcAecLayerStandard
 70
     0
  0
APPID
  5
3D
330
9
100
AcDbSymbolTableRecord
100
AcDbRegAppTableRecord
  2
ACAD_DSTYLE_DIMTEXT_FILL
 70
     0
  0
APPID
  5
3E
330
9
100
AcDbSymbolTableRecord
100
AcDbRegAppTableRecord
  2
DCO15
 70
     0
  0
APPID
  5
3F
330
9
100
AcDbSymbolTableRecord
100
AcDbRegAppTableRecord
  2
ACAD_DSTYLE_DIMEXT_LENGTH
 70
     0
  0
APPID
  5
40
330
9
100
AcDbSymbolTableRecord
100
AcDbRegAppTableRecord
  2
ACAD_DSTYLE_DIMEXT_ENABLED
 70
     0
  0
APPID
  5
41
330
9
100
AcDbSymbolTableRecord
100
AcDbRegAppTableRecord
  2
ACAD_DSTYLE_DIM_LINETYPE
 70
     0
  0
APPID
  5
42
330
9
100
AcDbSymbolTableRecord
100
AcDbRegAppTableRecord
  2
ACAD_DSTYLE_DIM_EXT1_LINETYPE
 70
     0
  0
APPID
  5
43
330
9
100
AcDbSymbolTableRecord
100
AcDbRegAppTableRecord
  2
ACAD_DSTYLE_DIM_EXT2_LINETYPE
 70
     0
  0
APPID
  5
44
330
9
100
AcDbSymbolTableRecord
100
AcDbRegAppTableRecord
  2
ACAD_EXEMPT_FROM_CAD_STANDARDS
 70
     0
  0
APPID
  5
45
330
9
100
AcDbSymbolTableRecord
100
AcDbRegAppTableRecord
  2
AcadAnnoPO
 70
     0
  0
APPID
  5
46
330
9
100
AcDbSymbolTableRecord
100
AcDbRegAppTableRecord
  2
AcadAnnotative
 70
     0
  0
APPID
  5
47
330
9
100
AcDbSymbolTableRecord
100
AcDbRegAppTableRecord
  2
ACAD_DSTYLE_DIMJAG
 70
     0
  0
APPID
  5
48
330
9
100
AcDbSymbolTableRecord
100
AcDbRegAppTableRecord
  2
ACAD_DSTYLE_DIMTALN
 70
     0
  0
APPID
  5
49
330
9
100
AcDbSymbolTableRecord
100
AcDbRegAppTableRecord
  2
ACAD_MLEADERVER
 70
     0
  0
APPID
  5
4A
330
9
100
AcDbSymbolTableRecord
100
AcDbRegAppTableRecord
  2
ACAD_DSTYLE_DIMRADIAL_EXTENSION
 70
     0
  0
APPID
  5
4B
330
9
100
AcDbSymbolTableRecord
100
AcDbRegAppTableRecord
  2
ACAD_DSTYLE_DIMBREAK
 70
     0
  0
APPID
  5
4C
330
9
100
AcDbSymbolTableRecord
100
AcDbRegAppTableRecord
  2
ACAD_DSTYLE_DIMARC_LENGTH_SYMBOL
 70
     0
  0
APPID
  5
4D
330
9
100
AcDbSymbolTableRecord
100
AcDbRegAppTableRecord
  2
ACAD_DSTYLE_DIMJOGGED_JOGANGLE_SYMBOL
 70
     0
  0
APPID
  5
4E
330
9
100
AcDbSymbolTableRecord
100
AcDbRegAppTableRecord
  2
MCAD_NO_VIS
 70
     0
  0
APPID
  5
4F
330
9
100
AcDbSymbolTableRecord
100
AcDbRegAppTableRecord
  2
ACAD_TEMP_GRAPHIC
 70
     0
  0
APPID
  5
50
330
9
100
AcDbSymbolTableRecord
100
AcDbRegAppTableRecord
  2
AD_DRAW
 70
     0
  0
APPID
  5
51
330
9
100
AcDbSymbolTableRecord
100
AcDbRegAppTableRecord
  2
ACATTRIBSERVICES
 70
     0
  0
APPID
  5
52
330
9
100
AcDbSymbolTableRecord
100
AcDbRegAppTableRecord
  2
DESIGNERASSEMBLIES
 70
     0
  0
APPID
  5
53
330
9
100
AcDbSymbolTableRecord
100
AcDbRegAppTableRecord
  2
ACADM_DIM_EDIT
 70
     0
  0
APPID
  5
54
330
9
100
AcDbSymbolTableRecord
100
AcDbRegAppTableRecord
  2
AMDT_DM_ADJ
 70
     0
  0
APPID
  5
55
330
9
100
AcDbSymbolTableRecord
100
AcDbRegAppTableRecord
  2
GENIUS_GENODEF_13
 70
     0
  0
APPID
  5
56
330
9
100
AcDbSymbolTableRecord
100
AcDbRegAppTableRecord
  2
GENIUS_GENOBJ-N-FIL_13
 70
     0
  0
APPID
  5
57
330
9
100
AcDbSymbolTableRecord
100
AcDbRegAppTableRecord
  2
ACAD_DIMASSOC_CALC_DIMLFAC
 70
     0
  0
APPID
  5
58
330
9
100
AcDbSymbolTableRecord
100
AcDbRegAppTableRecord
  2
ACAD_DIMASSOC_DIMLFAC
 70
     0
  0
APPID
  5
59
330
9
100
AcDbSymbolTableRecord
100
AcDbRegAppTableRecord
  2
ACAD_DIMASSOC_OVERRIDDEN_DIMLFAC
 70
     0
  0
APPID
  5
4E5
330
9
100
AcDbSymbolTableRecord
100
AcDbRegAppTableRecord
  2
CAXA
 70
     0
  0
APPID
  5
1BF7
330
9
100
AcDbSymbolTableRecord
100
AcDbRegAppTableRecord
  2
AVE_RENDER
 70
     0
  0
APPID
  5
1BF8
330
9
100
AcDbSymbolTableRecord
100
AcDbRegAppTableRecord
  2
AVE_ENTITY_MATERIAL
 70
     0
  0
APPID
  5
1BF9
330
9
100
AcDbSymbolTableRecord
100
AcDbRegAppTableRecord
  2
AVE_FINISH
 70
     0
  0
APPID
  5
1BFA
330
9
100
AcDbSymbolTableRecord
100
AcDbRegAppTableRecord
  2
AVE_MATERIAL
 70
     0
  0
APPID
  5
1BFB
330
9
100
AcDbSymbolTableRecord
100
AcDbRegAppTableRecord
  2
AVE_GLOBAL
 70
     0
  0
APPID
  5
1BFC
330
9
100
AcDbSymbolTableRecord
100
AcDbRegAppTableRecord
  2
GENIUS_GENBLLY_14
 70
     0
  0
APPID
  5
1BFD
330
9
100
AcDbSymbolTableRecord
100
AcDbRegAppTableRecord
  2
ODA
 70
     0
  0
APPID
  5
1BFE
330
9
100
AcDbSymbolTableRecord
100
AcDbRegAppTableRecord
  2
RAK
 70
     0
  0
APPID
  5
1BFF
330
9
100
AcDbSymbolTableRecord
100
AcDbRegAppTableRecord
  2
AcDbDynamicBlockGUID
 70
     0
  0
APPID
  5
1C00
330
9
100
AcDbSymbolTableRecord
100
AcDbRegAppTableRecord
  2
AcDbBlockRepETag
 70
     0
  0
APPID
  5
1C01
330
9
100
AcDbSymbolTableRecord
100
AcDbRegAppTableRecord
  2
ACAUTHENVIRON
 70
     0
  0
APPID
  5
1C02
330
9
100
AcDbSymbolTableRecord
100
AcDbRegAppTableRecord
  2
AcDbDynamicBlockTrueName
 70
     0
  0
APPID
  5
424D
330
9
100
AcDbSymbolTableRecord
100
AcDbRegAppTableRecord
  2
ACAD_NAV_VCDISPLAY
 70
     0
  0
ENDTAB
  0
TABLE
  2
DIMSTYLE
  5
A
330
0
100
AcDbSymbolTable
 70
     5
100
AcDbDimStyleTable
 71
     0
  0
DIMSTYLE
105
25
330
A
100
AcDbSymbolTableRecord
100
AcDbDimStyleTableRecord
  2
Standard
 70
     0
340
11
  0
DIMSTYLE
105
60
330
A
100
AcDbSymbolTableRecord
100
AcDbDimStyleTableRecord
  2
副本 (3) ISO-25 4
 70
     0
 41
14.0
 42
0.0
 43
10.0
 44
6.0
 73
     0
 74
     0
 77
     1
 78
     8
140
20.0
141
7.5
143
0.03937007874016
147
1.5
171
     3
172
     1
271
     1
272
     1
274
     3
283
     0
284
     8
340
11
  0
DIMSTYLE
105
119
330
A
100
AcDbSymbolTableRecord
100
AcDbDimStyleTableRecord
  2
副本 ISO-25
 70
     0
 41
12.0
 42
0.0
 43
10.0
 44
5.0
 73
     0
 74
     0
 77
     1
 78
     8
140
18.0
141
1.5
143
0.03937007874016
147
1.5
171
     3
172
     1
271
     1
272
     1
274
     3
278
    44
283
     0
284
     8
340
11
  0
DIMSTYLE
105
359
330
A
100
AcDbSymbolTableRecord
100
AcDbDimStyleTableRecord
  2
ISO-25
 70
     0
 41
17.0
 42
3.0
 43
3.75
 44
1.25
 73
     0
 77
     1
 78
     8
140
19.0
141
80.0
143
0.03937007874016
147
7.0
170
     1
171
     3
172
     1
271
     2
272
     2
273
     7
274
     3
283
     0
284
     8
340
11
  0
DIMSTYLE
105
4EC
102
{ACAD_REACTORS
330
4282
330
4283
102
}
330
A
100
AcDbSymbolTableRecord
100
AcDbDimStyleTableRecord
  2
英寸
 70
     0
 41
12.0
 42
0.0
 43
10.0
 44
3.75
 73
     0
 74
     0
 77
     1
 78
     8
140
16.0
141
7.5
143
0.03937007874016
147
2.0
170
     1
171
     3
172
     1
179
     1
271
     1
272
     1
273
     7
274
     3
283
     0
284
     8
340
11
  0
ENDTAB
  0
TABLE
  2
BLOCK_RECORD
  5
1
330
0
100
AcDbSymbolTable
 70
    15
  0
BLOCK_RECORD
  5
1F
330
1
100
AcDbSymbolTableRecord
100
AcDbBlockTableRecord
  2
*Model_Space
340
22
 70
     0
280
     1
281
     0
  0
BLOCK_RECORD
  5
1B
330
1
100
AcDbSymbolTableRecord
100
AcDbBlockTableRecord
  2
*Paper_Space
340
1E
 70
     0
280
     1
281
     0
  0
BLOCK_RECORD
  5
23
330
1
100
AcDbSymbolTableRecord
100
AcDbBlockTableRecord
  2
*Paper_Space0
340
24
 70
     0
280
     1
281
     0
  0
BLOCK_RECORD
  5
3F92
330
1
100
AcDbSymbolTableRecord
100
AcDbBlockTableRecord
  2
*D1
340
0
 70
     0
280
     1
281
     0
  0
BLOCK_RECORD
  5
3F9F
330
1
100
AcDbSymbolTableRecord
100
AcDbBlockTableRecord
  2
*D2
340
0
 70
     0
280
     1
281
     0
  0
BLOCK_RECORD
  5
3FAC
330
1
100
AcDbSymbolTableRecord
100
AcDbBlockTableRecord
  2
*D3
340
0
 70
     0
280
     1
281
     0
  0
BLOCK_RECORD
  5
3FB9
330
1
100
AcDbSymbolTableRecord
100
AcDbBlockTableRecord
  2
*D4
340
0
 70
     0
280
     1
281
     0
  0
BLOCK_RECORD
  5
3FC6
330
1
100
AcDbSymbolTableRecord
100
AcDbBlockTableRecord
  2
*D5
340
0
 70
     0
280
     1
281
     0
  0
BLOCK_RECORD
  5
3FD3
330
1
100
AcDbSymbolTableRecord
100
AcDbBlockTableRecord
  2
*D6
340
0
 70
     0
280
     1
281
     0
  0
BLOCK_RECORD
  5
4029
330
1
100
AcDbSymbolTableRecord
100
AcDbBlockTableRecord
  2
*D7
340
0
 70
     0
280
     1
281
     0
  0
BLOCK_RECORD
  5
4049
330
1
100
AcDbSymbolTableRecord
100
AcDbBlockTableRecord
  2
*D8
340
0
 70
     0
280
     1
281
     0
  0
BLOCK_RECORD
  5
4263
330
1
100
AcDbSymbolTableRecord
100
AcDbBlockTableRecord
  2
*D10
340
0
 70
     0
280
     1
281
     0
  0
BLOCK_RECORD
  5
426F
330
1
100
AcDbSymbolTableRecord
100
AcDbBlockTableRecord
  2
*D11
340
0
 70
     0
280
     1
281
     0
  0
BLOCK_RECORD
  5
4285
330
1
100
AcDbSymbolTableRecord
100
AcDbBlockTableRecord
  2
*D13
340
0
 70
     0
280
     1
281
     0
  0
BLOCK_RECORD
  5
4291
330
1
100
AcDbSymbolTableRecord
100
AcDbBlockTableRecord
  2
*D14
340
0
 70
     0
280
     1
281
     0
  0
ENDTAB
  0
ENDSEC
  0
SECTION
  2
BLOCKS
  0
BLOCK
  5
20
330
1F
100
AcDbEntity
  8
0
100
AcDbBlockBegin
  2
*Model_Space
 70
     0
 10
0.0
 20
0.0
 30
0.0
  3
*Model_Space
  1

  0
ENDBLK
  5
21
330
1F
100
AcDbEntity
  8
0
100
AcDbBlockEnd
  0
BLOCK
  5
1C
330
1B
100
AcDbEntity
 67
     1
  8
0
100
AcDbBlockBegin
  2
*Paper_Space
 70
     0
 10
0.0
 20
0.0
 30
0.0
  3
*Paper_Space
  1

  0
ENDBLK
  5
1D
330
1B
100
AcDbEntity
 67
     1
  8
0
100
AcDbBlockEnd
  0
BLOCK
  5
39
330
23
100
AcDbEntity
 67
     1
  8
0
100
AcDbBlockBegin
  2
*Paper_Space0
 70
     0
 10
0.0
 20
0.0
 30
0.0
  3
*Paper_Space0
  1

  0
ENDBLK
  5
3A
330
23
100
AcDbEntity
 67
     1
  8
0
100
AcDbBlockEnd
  0
BLOCK
  5
3F93
330
3F92
100
AcDbEntity
  8
0
100
AcDbBlockBegin
  2
*D1
 70
     1
 10
0.0
 20
0.0
 30
0.0
  3
*D1
  1

  0
POINT
  5
3F89
330
3F92
100
AcDbEntity
  8
Defpoints
  6
ByBlock
440
 16777216
100
AcDbPoint
 10
348.9560469317166
 20
780.5
 30
0.0
  0
POINT
  5
3F8A
330
3F92
100
AcDbEntity
  8
Defpoints
  6
ByBlock
440
 16777216
100
AcDbPoint
 10
1098.956046931711
 20
785.5
 30
0.0
  0
LINE
  5
3F8B
330
3F92
100
AcDbEntity
  8
标注
  6
ByBlock
 62
     0
440
 16777216
370
    -2
100
AcDbLine
 10
348.9560469317166
 20
780.5
 30
0.0
 11
348.9560469317166
 21
847.2725673309666
 31
0.0
  0
LINE
  5
3F8C
330
3F92
100
AcDbEntity
  8
标注
  6
ByBlock
 62
     0
440
 16777216
370
    -2
100
AcDbLine
 10
1098.956046931711
 20
785.5
 30
0.0
 11
1098.956046931711
 21
847.2725673309666
 31
0.0
  0
LINE
  5
3F8D
330
3F92
100
AcDbEntity
  8
标注
  6
ByBlock
 62
     0
440
 16777216
370
    -2
100
AcDbLine
 10
356.9560469317166
 20
843.5225673309666
 30
0.0
 11
1090.956046931711
 21
843.5225673309666
 31
0.0
  0
SOLID
  5
3F8E
330
3F92
100
AcDbEntity
  8
标注
  6
ByBlock
 62
     0
440
 16777216
100
AcDbTrace
 10
348.9560469317166
 20
843.5225673309666
 30
0.0
 11
356.9560469317166
 21
842.1892339976331
 31
0.0
 12
356.9560469317166
 22
844.8559006643002
 32
0.0
 13
356.9560469317166
 23
844.8559006643002
 33
0.0
  0
SOLID
  5
3F8F
330
3F92
100
AcDbEntity
  8
标注
  6
ByBlock
 62
     0
440
 16777216
100
AcDbTrace
 10
1098.956046931711
 20
843.5225673309666
 30
0.0
 11
1090.956046931711
 21
842.1892339976331
 31
0.0
 12
1090.956046931711
 22
844.8559006643002
 32
0.0
 13
1090.956046931711
 23
844.8559006643002
 33
0.0
  0
MTEXT
  5
3F90
330
3F92
100
AcDbEntity
  8
标注
  6
ByBlock
 62
     0
440
 16777216
100
AcDbMText
 10
716.4999999999991
 20
856.0164281768056
 30
0.0
 40
16.0
 41
0.0
 46
0.0
 71
     5
 72
     1
  1
\A0;{\fArial|b0|i0|c0|p34;750 [29 1/2]}
 73
     1
 44
1.0
1001
ACAD
1000
MTEXTBEGIN
1070
    73
1070
     1
1070
    44
1040
1.0
1070
    74
1070
     0
1000
MTEXTEND
  0
ENDBLK
  5
3F94
330
3F92
100
AcDbEntity
  8
0
100
AcDbBlockEnd
  0
BLOCK
  5
3FA0
330
3F9F
100
AcDbEntity
  8
0
100
AcDbBlockBegin
  2
*D2
 70
     1
 10
0.0
 20
0.0
 30
0.0
  3
*D2
  1

  0
POINT
  5
3F96
330
3F9F
100
AcDbEntity
  8
Defpoints
  6
ByBlock
440
 16777216
100
AcDbPoint
 10
1096.5
 20
771.8764225820247
 30
0.0
  0
POINT
  5
3F97
330
3F9F
100
AcDbEntity
  8
Defpoints
  6
ByBlock
440
 16777216
100
AcDbPoint
 10
1100.5
 20
301.8764225820269
 30
0.0
  0
LINE
  5
3F98
330
3F9F
100
AcDbEntity
  8
标注
  6
ByBlock
 62
     0
440
 16777216
370
    -2
100
AcDbLine
 10
1096.5
 20
771.8764225820247
 30
0.0
 11
1174.513770435233
 21
771.8764225820247
 31
0.0
  0
LINE
  5
3F99
330
3F9F
100
AcDbEntity
  8
标注
  6
ByBlock
 62
     0
440
 16777216
370
    -2
100
AcDbLine
 10
1100.5
 20
301.8764225820269
 30
0.0
 11
1174.513770435233
 21
301.8764225820269
 31
0.0
  0
LINE
  5
3F9A
330
3F9F
100
AcDbEntity
  8
标注
  6
ByBlock
 62
     0
440
 16777216
370
    -2
100
AcDbLine
 10
1170.763770435233
 20
763.8764225820247
 30
0.0
 11
1170.763770435233
 21
309.8764225820269
 31
0.0
  0
SOLID
  5
3F9B
330
3F9F
100
AcDbEntity
  8
标注
  6
ByBlock
 62
     0
440
 16777216
100
AcDbTrace
 10
1170.763770435233
 20
771.8764225820247
 30
0.0
 11
1169.4304371019
 21
763.8764225820247
 31
0.0
 12
1172.097103768567
 22
763.8764225820247
 32
0.0
 13
1172.097103768567
 23
763.8764225820247
 33
0.0
  0
SOLID
  5
3F9C
330
3F9F
100
AcDbEntity
  8
标注
  6
ByBlock
 62
     0
440
 16777216
100
AcDbTrace
 10
1170.763770435233
 20
301.8764225820269
 30
0.0
 11
1169.4304371019
 21
309.8764225820269
 31
0.0
 12
1172.097103768567
 22
309.8764225820269
 32
0.0
 13
1172.097103768567
 23
309.8764225820269
 33
0.0
  0
MTEXT
  5
3F9D
330
3F9F
100
AcDbEntity
  8
标注
  6
ByBlock
 62
     0
440
 16777216
100
AcDbMText
 10
1158.269909589394
 20
536.6500000000009
 30
0.0
 40
16.0
 41
0.0
 46
0.0
 71
     5
 72
     1
  1
\A0;{\fArial|b0|i0|c0|p34;470 [18 1/2]}
 11
-0.0000000000000002
 21
1.0
 31
0.0
 73
     1
 44
1.0
1001
ACAD
1000
MTEXTBEGIN
1070
    73
1070
     1
1070
    44
1040
1.0
1070
    74
1070
     0
1000
MTEXTEND
  0
ENDBLK
  5
3FA1
330
3F9F
100
AcDbEntity
  8
0
100
AcDbBlockEnd
  0
BLOCK
  5
3FAD
330
3FAC
100
AcDbEntity
  8
0
100
AcDbBlockBegin
  2
*D3
 70
     1
 10
0.0
 20
0.0
 30
0.0
  3
*D3
  1

  0
POINT
  5
3FA3
330
3FAC
100
AcDbEntity
  8
Defpoints
  6
ByBlock
440
 16777216
100
AcDbPoint
 10
342.6060468756223
 20
778.5
 30
0.0
  0
POINT
  5
3FA4
330
3FAC
100
AcDbEntity
  8
Defpoints
  6
ByBlock
440
 16777216
100
AcDbPoint
 10
1105.306046931714
 20
789.0
 30
0.0
  0
LINE
  5
3FA5
330
3FAC
100
AcDbEntity
  8
标注
  6
ByBlock
 62
     0
440
 16777216
370
    -2
100
AcDbLine
 10
342.6060468756223
 20
778.5
 30
0.0
 11
342.6060468756223
 21
880.7725673309668
 31
0.0
  0
LINE
  5
3FA6
330
3FAC
100
AcDbEntity
  8
标注
  6
ByBlock
 62
     0
440
 16777216
370
    -2
100
AcDbLine
 10
1105.306046931714
 20
789.0
 30
0.0
 11
1105.306046931714
 21
880.7725673309668
 31
0.0
  0
LINE
  5
3FA7
330
3FAC
100
AcDbEntity
  8
标注
  6
ByBlock
 62
     0
440
 16777216
370
    -2
100
AcDbLine
 10
350.6060468756223
 20
877.0225673309667
 30
0.0
 11
1097.306046931714
 21
877.0225673309667
 31
0.0
  0
SOLID
  5
3FA8
330
3FAC
100
AcDbEntity
  8
标注
  6
ByBlock
 62
     0
440
 16777216
100
AcDbTrace
 10
342.6060468756223
 20
877.0225673309667
 30
0.0
 11
350.6060468756223
 21
875.689233997633
 31
0.0
 12
350.6060468756223
 22
878.3559006643001
 32
0.0
 13
350.6060468756223
 23
878.3559006643001
 33
0.0
  0
SOLID
  5
3FA9
330
3FAC
100
AcDbEntity
  8
标注
  6
ByBlock
 62
     0
440
 16777216
100
AcDbTrace
 10
1105.306046931714
 20
877.0225673309667
 30
0.0
 11
1097.306046931714
 21
875.689233997633
 31
0.0
 12
1097.306046931714
 22
878.3559006643001
 32
0.0
 13
1097.306046931714
 23
878.3559006643001
 33
0.0
  0
MTEXT
  5
3FAA
330
3FAC
100
AcDbEntity
  8
标注
  6
ByBlock
 62
     0
440
 16777216
100
AcDbMText
 10
716.4999999999991
 20
889.3090611918124
 30
0.0
 40
16.0
 41
0.0
 46
0.0
 71
     5
 72
     1
  1
\A0;{\fArial|b0|i0|c0|p34;762.7 [30]}
 73
     1
 44
1.0
1001
ACAD
1000
MTEXTBEGIN
1070
    73
1070
     1
1070
    44
1040
1.0
1070
    74
1070
     0
1000
MTEXTEND
  0
ENDBLK
  5
3FAE
330
3FAC
100
AcDbEntity
  8
0
100
AcDbBlockEnd
  0
BLOCK
  5
3FBA
330
3FB9
100
AcDbEntity
  8
0
100
AcDbBlockBegin
  2
*D4
 70
     1
 10
0.0
 20
0.0
 30
0.0
  3
*D4
  1

  0
POINT
  5
3FB0
330
3FB9
100
AcDbEntity
  8
Defpoints
  6
ByBlock
440
 16777216
100
AcDbPoint
 10
1092.5
 20
778.2264225820222
 30
0.0
  0
POINT
  5
3FB1
330
3FB9
100
AcDbEntity
  8
Defpoints
  6
ByBlock
440
 16777216
100
AcDbPoint
 10
1096.5
 20
295.5264225820283
 30
0.0
  0
LINE
  5
3FB2
330
3FB9
100
AcDbEntity
  8
标注
  6
ByBlock
 62
     0
440
 16777216
370
    -2
100
AcDbLine
 10
1092.5
 20
778.2264225820222
 30
0.0
 11
1205.513770435233
 21
778.2264225820222
 31
0.0
  0
LINE
  5
3FB3
330
3FB9
100
AcDbEntity
  8
标注
  6
ByBlock
 62
     0
440
 16777216
370
    -2
100
AcDbLine
 10
1096.5
 20
295.5264225820283
 30
0.0
 11
1205.513770435233
 21
295.5264225820283
 31
0.0
  0
LINE
  5
3FB4
330
3FB9
100
AcDbEntity
  8
标注
  6
ByBlock
 62
     0
440
 16777216
370
    -2
100
AcDbLine
 10
1201.763770435233
 20
770.2264225820222
 30
0.0
 11
1201.763770435233
 21
303.5264225820283
 31
0.0
  0
SOLID
  5
3FB5
330
3FB9
100
AcDbEntity
  8
标注
  6
ByBlock
 62
     0
440
 16777216
100
AcDbTrace
 10
1201.763770435233
 20
778.2264225820222
 30
0.0
 11
1200.4304371019
 21
770.2264225820222
 31
0.0
 12
1203.097103768567
 22
770.2264225820222
 32
0.0
 13
1203.097103768567
 23
770.2264225820222
 33
0.0
  0
SOLID
  5
3FB6
330
3FB9
100
AcDbEntity
  8
标注
  6
ByBlock
 62
     0
440
 16777216
100
AcDbTrace
 10
1201.763770435233
 20
295.5264225820283
 30
0.0
 11
1200.4304371019
 21
303.5264225820283
 31
0.0
 12
1203.097103768567
 22
303.5264225820283
 32
0.0
 13
1203.097103768567
 23
303.5264225820283
 33
0.0
  0
MTEXT
  5
3FB7
330
3FB9
100
AcDbEntity
  8
标注
  6
ByBlock
 62
     0
440
 16777216
100
AcDbMText
 10
1189.477276574388
 20
536.6500000000018
 30
0.0
 40
16.0
 41
0.0
 46
0.0
 71
     5
 72
     1
  1
\A0;{\fArial|b0|i0|c0|p34;482.7 [19]}
 11
-0.0000000000000002
 21
1.0
 31
0.0
 73
     1
 44
1.0
1001
ACAD
1000
MTEXTBEGIN
1070
    73
1070
     1
1070
    44
1040
1.0
1070
    74
1070
     0
1000
MTEXTEND
  0
ENDBLK
  5
3FBB
330
3FB9
100
AcDbEntity
  8
0
100
AcDbBlockEnd
  0
BLOCK
  5
3FC7
330
3FC6
100
AcDbEntity
  8
0
100
AcDbBlockBegin
  2
*D5
 70
     1
 10
0.0
 20
0.0
 30
0.0
  3
*D5
  1

  0
POINT
  5
3FBD
330
3FC6
100
AcDbEntity
  8
Defpoints
  6
ByBlock
440
 16777216
100
AcDbPoint
 10
355.3060468760932
 20
777.5
 30
0.0
  0
POINT
  5
3FBE
330
3FC6
100
AcDbEntity
  8
Defpoints
  6
ByBlock
440
 16777216
100
AcDbPoint
 10
1092.606046931714
 20
787.5
 30
0.0
  0
LINE
  5
3FBF
330
3FC6
100
AcDbEntity
  8
标注
  6
ByBlock
 62
     0
440
 16777216
370
    -2
100
AcDbLine
 10
355.3060468760932
 20
777.5
 30
0.0
 11
355.3060468760932
 21
816.2725673309667
 31
0.0
  0
LINE
  5
3FC0
330
3FC6
100
AcDbEntity
  8
标注
  6
ByBlock
 62
     0
440
 16777216
370
    -2
100
AcDbLine
 10
1092.606046931714
 20
787.5
 30
0.0
 11
1092.606046931714
 21
816.2725673309667
 31
0.0
  0
LINE
  5
3FC1
330
3FC6
100
AcDbEntity
  8
标注
  6
ByBlock
 62
     0
440
 16777216
370
    -2
100
AcDbLine
 10
363.3060468760932
 20
812.5225673309667
 30
0.0
 11
1084.606046931714
 21
812.5225673309667
 31
0.0
  0
SOLID
  5
3FC2
330
3FC6
100
AcDbEntity
  8
标注
  6
ByBlock
 62
     0
440
 16777216
100
AcDbTrace
 10
355.3060468760932
 20
812.5225673309667
 30
0.0
 11
363.3060468760932
 21
811.189233997633
 31
0.0
 12
363.3060468760932
 22
813.8559006643001
 32
0.0
 13
363.3060468760932
 23
813.8559006643001
 33
0.0
  0
SOLID
  5
3FC3
330
3FC6
100
AcDbEntity
  8
标注
  6
ByBlock
 62
     0
440
 16777216
100
AcDbTrace
 10
1092.606046931714
 20
812.5225673309667
 30
0.0
 11
1084.606046931714
 21
811.189233997633
 31
0.0
 12
1084.606046931714
 22
813.8559006643001
 32
0.0
 13
1084.606046931714
 23
813.8559006643001
 33
0.0
  0
MTEXT
  5
3FC4
330
3FC6
100
AcDbEntity
  8
标注
  6
ByBlock
 62
     0
440
 16777216
100
AcDbMText
 10
716.5000000000016
 20
824.8090611918126
 30
0.0
 40
16.0
 41
0.0
 46
0.0
 71
     5
 72
     1
  1
\A0;{\fArial|b0|i0|c0|p34;737.3 [29]}
 73
     1
 44
1.0
1001
ACAD
1000
MTEXTBEGIN
1070
    73
1070
     1
1070
    44
1040
1.0
1070
    74
1070
     0
1000
MTEXTEND
  0
ENDBLK
  5
3FC8
330
3FC6
100
AcDbEntity
  8
0
100
AcDbBlockEnd
  0
BLOCK
  5
3FD4
330
3FD3
100
AcDbEntity
  8
0
100
AcDbBlockBegin
  2
*D6
 70
     1
 10
0.0
 20
0.0
 30
0.0
  3
*D6
  1

  0
POINT
  5
3FCA
330
3FD3
100
AcDbEntity
  8
Defpoints
  6
ByBlock
440
 16777216
100
AcDbPoint
 10
1096.5
 20
765.5264225820274
 30
0.0
  0
POINT
  5
3FCB
330
3FD3
100
AcDbEntity
  8
Defpoints
  6
ByBlock
440
 16777216
100
AcDbPoint
 10
1096.5
 20
308.2264225820253
 30
0.0
  0
LINE
  5
3FCC
330
3FD3
100
AcDbEntity
  8
标注
  6
ByBlock
 62
     0
440
 16777216
370
    -2
100
AcDbLine
 10
1096.5
 20
765.5264225820274
 30
0.0
 11
1146.513770435233
 21
765.5264225820274
 31
0.0
  0
LINE
  5
3FCD
330
3FD3
100
AcDbEntity
  8
标注
  6
ByBlock
 62
     0
440
 16777216
370
    -2
100
AcDbLine
 10
1096.5
 20
308.2264225820253
 30
0.0
 11
1146.513770435233
 21
308.2264225820253
 31
0.0
  0
LINE
  5
3FCE
330
3FD3
100
AcDbEntity
  8
标注
  6
ByBlock
 62
     0
440
 16777216
370
    -2
100
AcDbLine
 10
1142.763770435234
 20
757.5264225820274
 30
0.0
 11
1142.763770435234
 21
316.2264225820254
 31
0.0
  0
SOLID
  5
3FCF
330
3FD3
100
AcDbEntity
  8
标注
  6
ByBlock
 62
     0
440
 16777216
100
AcDbTrace
 10
1142.763770435234
 20
765.5264225820274
 30
0.0
 11
1141.4304371019
 21
757.5264225820274
 31
0.0
 12
1144.097103768567
 22
757.5264225820274
 32
0.0
 13
1144.097103768567
 23
757.5264225820274
 33
0.0
  0
SOLID
  5
3FD0
330
3FD3
100
AcDbEntity
  8
标注
  6
ByBlock
 62
     0
440
 16777216
100
AcDbTrace
 10
1142.763770435234
 20
308.2264225820253
 30
0.0
 11
1141.4304371019
 21
316.2264225820254
 31
0.0
 12
1144.097103768567
 22
316.2264225820254
 32
0.0
 13
1144.097103768567
 23
316.2264225820254
 33
0.0
  0
MTEXT
  5
3FD1
330
3FD3
100
AcDbEntity
  8
标注
  6
ByBlock
 62
     0
440
 16777216
100
AcDbMText
 10
1130.477276574388
 20
536.8300000000003
 30
0.0
 40
16.0
 41
0.0
 46
0.0
 71
     5
 72
     1
  1
\A0;{\fArial|b0|i0|c0|p34;457.3 [18]}
 11
-0.0000000000000002
 21
1.0
 31
0.0
 73
     1
 44
1.0
1001
ACAD
1000
MTEXTBEGIN
1070
    73
1070
     1
1070
    44
1040
1.0
1070
    74
1070
     0
1000
MTEXTEND
  0
ENDBLK
  5
3FD5
330
3FD3
100
AcDbEntity
  8
0
100
AcDbBlockEnd
  0
BLOCK
  5
402A
330
4029
100
AcDbEntity
  8
0
100
AcDbBlockBegin
  2
*D7
 70
     1
 10
0.0
 20
0.0
 30
0.0
  3
*D7
  1

  0
POINT
  5
401D
330
4029
100
AcDbEntity
  8
Defpoints
  6
ByBlock
440
 16777216
100
AcDbPoint
 10
355.3060468756275
 20
504.8764167687636
 30
0.0
  0
POINT
  5
401E
330
4029
100
AcDbEntity
  8
Defpoints
  6
ByBlock
440
 16777216
100
AcDbPoint
 10
348.9560468756254
 20
504.8764167687564
 30
0.0
  0
LINE
  5
401F
330
4029
100
AcDbEntity
  8
标注
  6
ByBlock
 62
     0
440
 16777216
370
    -2
100
AcDbLine
 10
355.3060468756275
 20
504.8764167687636
 30
0.0
 11
355.3060468756275
 21
464.998989912962
 31
0.0
  0
LINE
  5
4020
330
4029
100
AcDbEntity
  8
标注
  6
ByBlock
 62
     0
440
 16777216
370
    -2
100
AcDbLine
 10
348.9560468756254
 20
504.8764167687564
 30
0.0
 11
348.9560468756254
 21
464.998989912962
 31
0.0
  0
LINE
  5
4021
330
4029
100
AcDbEntity
  8
标注
  6
ByBlock
 62
     0
440
 16777216
370
    -2
100
AcDbLine
 10
363.3060468756275
 20
468.7489899129618
 30
0.0
 11
371.3060468756276
 21
468.7489899129618
 31
0.0
  0
LINE
  5
4022
330
4029
100
AcDbEntity
  8
标注
  6
ByBlock
 62
     0
440
 16777216
370
    -2
100
AcDbLine
 10
234.8383356070942
 20
468.7489899129618
 30
0.0
 11
340.9560468756254
 21
468.7489899129618
 31
0.0
  0
SOLID
  5
4023
330
4029
100
AcDbEntity
  8
标注
  6
ByBlock
 62
     0
440
 16777216
100
AcDbTrace
 10
355.3060468756275
 20
468.7489899129618
 30
0.0
 11
363.3060468756275
 21
470.0823232462956
 31
0.0
 12
363.3060468756275
 22
467.4156565796283
 32
0.0
 13
363.3060468756275
 23
467.4156565796283
 33
0.0
  0
SOLID
  5
4024
330
4029
100
AcDbEntity
  8
标注
  6
ByBlock
 62
     0
440
 16777216
100
AcDbTrace
 10
348.9560468756254
 20
468.7489899129618
 30
0.0
 11
340.9560468756254
 21
470.0823232462956
 31
0.0
 12
340.9560468756254
 22
467.4156565796283
 32
0.0
 13
340.9560468756254
 23
467.4156565796283
 33
0.0
  0
LINE
  5
4025
330
4029
100
AcDbEntity
  8
标注
  6
ByBlock
 62
     0
440
 16777216
370
    -2
100
AcDbLine
 10
355.3060468756275
 20
468.7489899129618
 30
0.0
 11
348.9560468756254
 21
468.7489899129618
 31
0.0
  0
LINE
  5
4026
330
4029
100
AcDbEntity
  8
标注
  6
ByBlock
 62
     0
440
 16777216
370
    -2
100
AcDbLine
 10
355.3060468756275
 20
504.8764167687636
 30
0.0
 11
355.3060468756275
 21
504.8764167687636
 31
0.0
  0
MTEXT
  5
4027
330
4029
100
AcDbEntity
  8
标注
  6
ByBlock
 62
     0
440
 16777216
100
AcDbMText
 10
276.5
 20
481.2428507588009
 30
0.0
 40
16.0
 41
0.0
 46
0.0
 71
     5
 72
     1
  1
\A0;{\fArial|b0|i0|c0|p34;6.4 [1/4]}
 73
     1
 44
1.0
1001
ACAD
1000
MTEXTBEGIN
1070
    73
1070
     1
1070
    44
1040
1.0
1070
    74
1070
     0
1000
MTEXTEND
  0
ENDBLK
  5
402B
330
4029
100
AcDbEntity
  8
0
100
AcDbBlockEnd
  0
BLOCK
  5
404A
330
4049
100
AcDbEntity
  8
0
100
AcDbBlockBegin
  2
*D8
 70
     1
 10
0.0
 20
0.0
 30
0.0
  3
*D8
  1

  0
POINT
  5
403D
330
4049
100
AcDbEntity
  8
Defpoints
  6
ByBlock
440
 16777216
100
AcDbPoint
 10
348.9560468756254
 20
504.8764167687564
 30
0.0
  0
POINT
  5
403E
330
4049
100
AcDbEntity
  8
Defpoints
  6
ByBlock
440
 16777216
100
AcDbPoint
 10
342.6060468756232
 20
504.8764167687636
 30
0.0
  0
LINE
  5
403F
330
4049
100
AcDbEntity
  8
标注
  6
ByBlock
 62
     0
440
 16777216
370
    -2
100
AcDbLine
 10
348.9560468756254
 20
504.8764167687564
 30
0.0
 11
348.9560468756254
 21
428.5996402825782
 31
0.0
  0
LINE
  5
4040
330
4049
100
AcDbEntity
  8
标注
  6
ByBlock
 62
     0
440
 16777216
370
    -2
100
AcDbLine
 10
342.6060468756232
 20
504.8764167687636
 30
0.0
 11
342.6060468756232
 21
428.5996402825782
 31
0.0
  0
LINE
  5
4041
330
4049
100
AcDbEntity
  8
标注
  6
ByBlock
 62
     0
440
 16777216
370
    -2
100
AcDbLine
 10
356.9560468756254
 20
432.3496402825782
 30
0.0
 11
364.9560468756253
 21
432.3496402825782
 31
0.0
  0
LINE
  5
4042
330
4049
100
AcDbEntity
  8
标注
  6
ByBlock
 62
     0
440
 16777216
370
    -2
100
AcDbLine
 10
239.8383356070942
 20
432.3496402825782
 30
0.0
 11
334.6060468756232
 21
432.3496402825782
 31
0.0
  0
SOLID
  5
4043
330
4049
100
AcDbEntity
  8
标注
  6
ByBlock
 62
     0
440
 16777216
100
AcDbTrace
 10
348.9560468756254
 20
432.3496402825782
 30
0.0
 11
356.9560468756254
 21
433.6829736159118
 31
0.0
 12
356.9560468756254
 22
431.0163069492445
 32
0.0
 13
356.9560468756254
 23
431.0163069492445
 33
0.0
  0
SOLID
  5
4044
330
4049
100
AcDbEntity
  8
标注
  6
ByBlock
 62
     0
440
 16777216
100
AcDbTrace
 10
342.6060468756232
 20
432.3496402825782
 30
0.0
 11
334.6060468756232
 21
433.6829736159118
 31
0.0
 12
334.6060468756232
 22
431.0163069492445
 32
0.0
 13
334.6060468756232
 23
431.0163069492445
 33
0.0
  0
LINE
  5
4045
330
4049
100
AcDbEntity
  8
标注
  6
ByBlock
 62
     0
440
 16777216
370
    -2
100
AcDbLine
 10
348.9560468756254
 20
432.3496402825782
 30
0.0
 11
342.6060468756232
 21
432.3496402825782
 31
0.0
  0
LINE
  5
4046
330
4049
100
AcDbEntity
  8
标注
  6
ByBlock
 62
     0
440
 16777216
370
    -2
100
AcDbLine
 10
348.9560468756254
 20
504.8764167687564
 30
0.0
 11
348.9560468756254
 21
504.8764167687564
 31
0.0
  0
MTEXT
  5
4047
330
4049
100
AcDbEntity
  8
标注
  6
ByBlock
 62
     0
440
 16777216
100
AcDbMText
 10
281.5
 20
444.8435011284171
 30
0.0
 40
16.0
 41
0.0
 46
0.0
 71
     5
 72
     1
  1
\A0;{\fArial|b0|i0|c0|p34;6.4 [1/4]}
 73
     1
 44
1.0
1001
ACAD
1000
MTEXTBEGIN
1070
    73
1070
     1
1070
    44
1040
1.0
1070
    74
1070
     0
1000
MTEXTEND
  0
ENDBLK
  5
404B
330
4049
100
AcDbEntity
  8
0
100
AcDbBlockEnd
  0
BLOCK
  5
4264
330
4263
100
AcDbEntity
  8
0
100
AcDbBlockBegin
  2
*D10
 70
     1
 10
0.0
 20
0.0
 30
0.0
  3
*D10
  1

  0
LINE
  5
4265
330
4263
100
AcDbEntity
  8
标注
 62
     0
440
 16777216
370
    -2
100
AcDbLine
 10
348.9560469317162
 20
504.8764225820259
 30
0.0
 11
348.9560469317162
 21
847.2725673309666
 31
0.0
  0
LINE
  5
4266
330
4263
100
AcDbEntity
  8
标注
 62
     0
440
 16777216
370
    -2
100
AcDbLine
 10
1098.724965635433
 20
499.6415682234207
 30
0.0
 11
1098.724965635433
 21
847.2725673309666
 31
0.0
  0
LINE
  5
4267
330
4263
100
AcDbEntity
  8
标注
 62
     0
440
 16777216
370
    -2
100
AcDbLine
 10
356.9560469317162
 20
843.5225673309666
 30
0.0
 11
1090.724965635433
 21
843.5225673309666
 31
0.0
  0
SOLID
  5
4268
330
4263
100
AcDbEntity
  8
标注
 62
     0
440
 16777216
100
AcDbTrace
 10
356.9560469317162
 20
844.8559006643
 30
0.0
 11
356.9560469317162
 21
842.1892339976333
 31
0.0
 12
348.9560469317162
 22
843.5225673309666
 32
0.0
 13
348.9560469317162
 23
843.5225673309666
 33
0.0
  0
SOLID
  5
4269
330
4263
100
AcDbEntity
  8
标注
 62
     0
440
 16777216
100
AcDbTrace
 10
1090.724965635433
 20
844.8559006643
 30
0.0
 11
1090.724965635433
 21
842.1892339976333
 31
0.0
 12
1098.724965635433
 22
843.5225673309666
 32
0.0
 13
1098.724965635433
 23
843.5225673309666
 33
0.0
  0
MTEXT
  5
426A
330
4263
100
AcDbEntity
  8
标注
 62
     0
440
 16777216
100
AcDbMText
 10
716.4999999999991
 20
855.8800025287839
 30
0.0
 40
16.0
 41
0.0
 46
0.0
 71
     5
 72
     1
  1
{\fArial|b0|i0|c0|p34;749.8 [29 1/2]}
 73
     1
 44
1.0
  0
POINT
  5
426B
330
4263
100
AcDbEntity
  8
Defpoints
 62
     0
440
 16777216
100
AcDbPoint
 10
348.9560469317162
 20
504.8764225820259
 30
0.0
  0
POINT
  5
426C
330
4263
100
AcDbEntity
  8
Defpoints
 62
     0
440
 16777216
100
AcDbPoint
 10
1098.724965635433
 20
499.6415682234207
 30
0.0
  0
POINT
  5
426D
330
4263
100
AcDbEntity
  8
Defpoints
 62
     0
440
 16777216
100
AcDbPoint
 10
1098.724965635433
 20
843.5225673309666
 30
0.0
  0
ENDBLK
  5
426E
330
4263
100
AcDbEntity
  8
0
100
AcDbBlockEnd
  0
BLOCK
  5
4270
330
426F
100
AcDbEntity
  8
0
100
AcDbBlockBegin
  2
*D11
 70
     1
 10
0.0
 20
0.0
 30
0.0
  3
*D11
  1

  0
LINE
  5
4271
330
426F
100
AcDbEntity
  8
标注
 62
     0
440
 16777216
370
    -2
100
AcDbLine
 10
874.9560290503252
 20
771.8764225820251
 30
0.0
 11
1174.513770435233
 21
771.8764225820251
 31
0.0
  0
LINE
  5
4272
330
426F
100
AcDbEntity
  8
标注
 62
     0
440
 16777216
370
    -2
100
AcDbLine
 10
874.9560469316673
 20
301.876422582027
 30
0.0
 11
1174.513770435233
 21
301.8764225820271
 31
0.0
  0
LINE
  5
4273
330
426F
100
AcDbEntity
  8
标注
 62
     0
440
 16777216
370
    -2
100
AcDbLine
 10
1170.763770435233
 20
763.876422582025
 30
0.0
 11
1170.763770435233
 21
309.8764225820271
 31
0.0
  0
SOLID
  5
4274
330
426F
100
AcDbEntity
  8
标注
 62
     0
440
 16777216
100
AcDbTrace
 10
1169.430437101899
 20
763.876422582025
 30
0.0
 11
1172.097103768566
 21
763.876422582025
 31
0.0
 12
1170.763770435233
 22
771.8764225820251
 32
0.0
 13
1170.763770435233
 23
771.8764225820251
 33
0.0
  0
SOLID
  5
4275
330
426F
100
AcDbEntity
  8
标注
 62
     0
440
 16777216
100
AcDbTrace
 10
1169.4304371019
 20
309.8764225820271
 30
0.0
 11
1172.097103768566
 21
309.8764225820271
 31
0.0
 12
1170.763770435233
 22
301.8764225820271
 32
0.0
 13
1170.763770435233
 23
301.8764225820271
 33
0.0
  0
MTEXT
  5
4276
330
426F
100
AcDbEntity
  8
标注
 62
     0
440
 16777216
100
AcDbMText
 10
1158.406335237415
 20
536.6500000000009
 30
0.0
 40
16.0
 41
0.0
 46
0.0
 71
     5
 72
     1
  1
{\fArial|b0|i0|c0|p34;470 [18 1/2]}
 11
0.0000000000000001
 21
1.0
 31
0.0
 73
     1
 44
1.0
  0
POINT
  5
4277
330
426F
100
AcDbEntity
  8
Defpoints
 62
     0
440
 16777216
100
AcDbPoint
 10
874.9560290503252
 20
771.8764225820251
 30
0.0
  0
POINT
  5
4278
330
426F
100
AcDbEntity
  8
Defpoints
 62
     0
440
 16777216
100
AcDbPoint
 10
874.9560469316673
 20
301.876422582027
 30
0.0
  0
POINT
  5
4279
330
426F
100
AcDbEntity
  8
Defpoints
 62
     0
440
 16777216
100
AcDbPoint
 10
1170.763770435233
 20
301.8764225820271
 30
0.0
  0
ENDBLK
  5
427A
330
426F
100
AcDbEntity
  8
0
100
AcDbBlockEnd
  0
BLOCK
  5
4286
330
4285
100
AcDbEntity
  8
0
100
AcDbBlockBegin
  2
*D13
 70
     1
 10
0.0
 20
0.0
 30
0.0
  3
*D13
  1

  0
LINE
  5
42AF
330
4285
100
AcDbEntity
  8
标注
 62
     0
440
 16777216
370
    -2
100
AcDbLine
 10
348.9560469317162
 20
504.8764225820259
 30
0.0
 11
348.9560469317162
 21
847.2725673309666
 31
0.0
  0
LINE
  5
42B0
330
4285
100
AcDbEntity
  8
标注
 62
     0
440
 16777216
370
    -2
100
AcDbLine
 10
1098.724965635433
 20
499.6415682234207
 30
0.0
 11
1098.724965635433
 21
847.2725673309666
 31
0.0
  0
LINE
  5
42B1
330
4285
100
AcDbEntity
  8
标注
 62
     0
440
 16777216
370
    -2
100
AcDbLine
 10
356.9560469317162
 20
843.5225673309666
 30
0.0
 11
1090.724965635433
 21
843.5225673309666
 31
0.0
  0
SOLID
  5
42B2
330
4285
100
AcDbEntity
  8
标注
 62
     0
440
 16777216
100
AcDbTrace
 10
356.9560469317162
 20
844.8559006643
 30
0.0
 11
356.9560469317162
 21
842.1892339976333
 31
0.0
 12
348.9560469317162
 22
843.5225673309666
 32
0.0
 13
348.9560469317162
 23
843.5225673309666
 33
0.0
  0
SOLID
  5
42B3
330
4285
100
AcDbEntity
  8
标注
 62
     0
440
 16777216
100
AcDbTrace
 10
1090.724965635433
 20
844.8559006643
 30
0.0
 11
1090.724965635433
 21
842.1892339976333
 31
0.0
 12
1098.724965635433
 22
843.5225673309666
 32
0.0
 13
1098.724965635433
 23
843.5225673309666
 33
0.0
  0
MTEXT
  5
42B4
330
4285
100
AcDbEntity
  8
标注
 62
     0
440
 16777216
100
AcDbMText
 10
716.4999999999991
 20
855.8800025287839
 30
0.0
 40
16.0
 41
0.0
 46
0.0
 71
     5
 72
     1
  1
{\fArial|b0|i0|c0|p34;749.8 [29 1/2]}
 73
     1
 44
1.0
  0
POINT
  5
42B5
330
4285
100
AcDbEntity
  8
Defpoints
 62
     0
440
 16777216
100
AcDbPoint
 10
348.9560469317162
 20
504.8764225820259
 30
0.0
  0
POINT
  5
42B6
330
4285
100
AcDbEntity
  8
Defpoints
 62
     0
440
 16777216
100
AcDbPoint
 10
1098.724965635433
 20
499.6415682234207
 30
0.0
  0
POINT
  5
42B7
330
4285
100
AcDbEntity
  8
Defpoints
 62
     0
440
 16777216
100
AcDbPoint
 10
1098.724965635433
 20
843.5225673309666
 30
0.0
  0
ENDBLK
  5
4287
330
4285
100
AcDbEntity
  8
0
100
AcDbBlockEnd
  0
BLOCK
  5
4292
330
4291
100
AcDbEntity
  8
0
100
AcDbBlockBegin
  2
*D14
 70
     1
 10
0.0
 20
0.0
 30
0.0
  3
*D14
  1

  0
LINE
  5
42B8
330
4291
100
AcDbEntity
  8
标注
 62
     0
440
 16777216
370
    -2
100
AcDbLine
 10
874.9560290503252
 20
771.8764225820251
 30
0.0
 11
1174.513770435233
 21
771.8764225820251
 31
0.0
  0
LINE
  5
42B9
330
4291
100
AcDbEntity
  8
标注
 62
     0
440
 16777216
370
    -2
100
AcDbLine
 10
874.9560469316673
 20
301.876422582027
 30
0.0
 11
1174.513770435233
 21
301.8764225820271
 31
0.0
  0
LINE
  5
42BA
330
4291
100
AcDbEntity
  8
标注
 62
     0
440
 16777216
370
    -2
100
AcDbLine
 10
1170.763770435233
 20
763.876422582025
 30
0.0
 11
1170.763770435233
 21
309.8764225820271
 31
0.0
  0
SOLID
  5
42BB
330
4291
100
AcDbEntity
  8
标注
 62
     0
440
 16777216
100
AcDbTrace
 10
1169.430437101899
 20
763.876422582025
 30
0.0
 11
1172.097103768566
 21
763.876422582025
 31
0.0
 12
1170.763770435233
 22
771.8764225820251
 32
0.0
 13
1170.763770435233
 23
771.8764225820251
 33
0.0
  0
SOLID
  5
42BC
330
4291
100
AcDbEntity
  8
标注
 62
     0
440
 16777216
100
AcDbTrace
 10
1169.4304371019
 20
309.8764225820271
 30
0.0
 11
1172.097103768566
 21
309.8764225820271
 31
0.0
 12
1170.763770435233
 22
301.8764225820271
 32
0.0
 13
1170.763770435233
 23
301.8764225820271
 33
0.0
  0
MTEXT
  5
42BD
330
4291
100
AcDbEntity
  8
标注
 62
     0
440
 16777216
100
AcDbMText
 10
1158.406335237415
 20
536.6500000000009
 30
0.0
 40
16.0
 41
0.0
 46
0.0
 71
     5
 72
     1
  1
{\fArial|b0|i0|c0|p34;470 [18 1/2]}
 11
0.0000000000000001
 21
1.0
 31
0.0
 73
     1
 44
1.0
  0
POINT
  5
42BE
330
4291
100
AcDbEntity
  8
Defpoints
 62
     0
440
 16777216
100
AcDbPoint
 10
874.9560290503252
 20
771.8764225820251
 30
0.0
  0
POINT
  5
42BF
330
4291
100
AcDbEntity
  8
Defpoints
 62
     0
440
 16777216
100
AcDbPoint
 10
874.9560469316673
 20
301.876422582027
 30
0.0
  0
POINT
  5
42C0
330
4291
100
AcDbEntity
  8
Defpoints
 62
     0
440
 16777216
100
AcDbPoint
 10
1170.763770435233
 20
301.8764225820271
 30
0.0
  0
ENDBLK
  5
4293
330
4291
100
AcDbEntity
  8
0
100
AcDbBlockEnd
  0
ENDSEC
  0
SECTION
  2
ENTITIES
  0
LINE
  5
3780
330
1F
100
AcDbEntity
  8
不可见
100
AcDbLine
 10
1326.355801320022
 20
934.2051151732198
 30
0.0
 11
1326.355801320022
 21
90.57469565813876
 31
0.0
  0
LINE
  5
3781
330
1F
100
AcDbEntity
  8
粗实线
100
AcDbLine
 10
1312.153269004954
 20
920.0025828581672
 30
0.0
 11
1312.153269004954
 21
104.7772279732067
 31
0.0
  0
LINE
  5
3782
330
1F
100
AcDbEntity
  8
不可见
100
AcDbLine
 10
1326.355801320022
 20
90.57469565813876
 30
0.0
 11
133.3430868542532
 21
90.57469565813876
 31
0.0
  0
LINE
  5
3783
330
1F
100
AcDbEntity
  8
粗实线
100
AcDbLine
 10
1312.153269004954
 20
104.7772279732067
 30
0.0
 11
204.3557484295843
 21
104.7772279732067
 31
0.0
  0
LINE
  5
3784
330
1F
100
AcDbEntity
  8
粗实线
100
AcDbLine
 10
1312.153269004954
 20
104.7772279732067
 30
0.0
 11
204.3557484295843
 21
104.7772279732067
 31
0.0
  0
LINE
  5
3788
330
1F
100
AcDbEntity
  8
不可见
100
AcDbLine
 10
133.3430868542532
 20
934.2051151732198
 30
0.0
 11
1326.355801320022
 21
934.2051151732198
 31
0.0
  0
LINE
  5
3789
330
1F
100
AcDbEntity
  8
粗实线
100
AcDbLine
 10
204.3557484295843
 20
920.0025828581486
 30
0.0
 11
1312.153269004954
 21
920.0025828581486
 31
0.0
  0
LINE
  5
378A
330
1F
100
AcDbEntity
  8
不可见
100
AcDbLine
 10
133.3430868542532
 20
90.57469565813876
 30
0.0
 11
133.3430868542532
 21
934.2051151732198
 31
0.0
  0
LINE
  5
378B
330
1F
100
AcDbEntity
  8
粗实线
100
AcDbLine
 10
204.3557484295843
 20
104.7772279732067
 30
0.0
 11
204.3557484295843
 21
920.0025828581486
 31
0.0
  0
HATCH
  5
3B60
330
1F
100
AcDbEntity
  8
剖切线
100
AcDbHatch
 10
0.0
 20
0.0
 30
0.0
210
0.0
220
0.0
230
1.0
  2
ANSI37
 70
     0
 71
     0
 91
        2
 92
        7
 72
     0
 73
     1
 93
        6
 10
909.7957068348112
 20
613.8032253585333
 10
907.549306834808
 20
613.8032253585333
 10
907.549306834808
 20
590.0700730196478
 10
905.8213068348052
 20
590.0700730196478
 10
905.8213068348052
 20
588.3420730196449
 10
909.7957068348112
 20
588.3420730196449
 97
        0
 92
        7
 72
     0
 73
     1
 93
        6
 10
923.1013068348039
 20
613.8032253585333
 10
920.8549068348148
 20
613.8032253585333
 10
920.8549068348148
 20
588.3420730196449
 10
924.8293068348068
 20
588.3420730196449
 10
924.8293068348068
 20
590.0700730196478
 10
923.1013068348039
 20
590.0700730196478
 97
        0
 75
     0
 76
     1
 52
0.0
 41
0.3456000000000001
 77
     0
 78
     2
 53
45.0
 43
3074.154490923349
 44
-4042.833001453786
 45
-0.7758941288593633
 46
0.7758941288630014
 79
     0
 53
135.0
 43
3074.154490923349
 44
-4042.833001453786
 45
-0.7758941288593633
 46
-0.7758941288630014
 79
     0
 47
0.0875911827022286
 98
        2
 10
909.103558956027
 20
605.6066689529034
 10
921.9786674256102
 20
606.6661712590647
  0
HATCH
  5
3B61
330
1F
100
AcDbEntity
  8
剖切线
100
AcDbHatch
 10
0.0
 20
0.0
 30
0.0
210
0.0
220
0.0
230
1.0
  2
ANSI31
 70
     0
 71
     1
 91
        1
 92
        5
 93
        8
 72
     1
 10
907.549306834808
 20
590.0700730196331
 11
907.549306834808
 21
613.8032253585042
 72
     1
 10
907.549306834808
 20
613.8032253585042
 11
923.1013068348111
 21
613.8032253585042
 72
     1
 10
923.1013068348111
 20
613.8032253585042
 11
923.1013068348111
 21
590.0700730196331
 72
     1
 10
923.1013068348111
 20
590.0700730196331
 11
966.8957766513997
 21
590.0700730196331
 72
     1
 10
966.8957766513997
 20
590.0700730196331
 11
966.8957766513997
 21
633.2700730196303
 72
     1
 10
966.8957766513997
 20
633.2700730196303
 11
840.1850117427382
 21
633.2700730196303
 72
     4
 94
        3
 73
     0
 74
     0
 95
       11
 96
        7
 40
0.0
 40
0.0
 40
0.0
 40
0.0
 40
12.6914133051571
 40
25.64182523175289
 40
37.49872691533479
 40
45.6707937178023
 40
45.6707937178023
 40
45.6707937178023
 40
45.6707937178023
 10
840.1850117427382
 20
633.2700730196303
 10
842.7209782546682
 20
629.3542564436181
 10
847.844663736258
 20
621.4427116954136
 10
837.9217147918845
 20
609.6017896099576
 10
845.6718565974746
 20
598.5080759459828
 10
841.7749839628694
 20
592.5152287696996
 10
840.1850117427382
 20
590.0700730196331
 97
        5
 11
840.1850117427382
 21
633.2700730196303
 11
844.8754895467644
 21
621.4772196900812
 11
841.0101009286227
 21
609.117125034325
 11
843.5226398387822
 21
597.5294908599535
 11
840.1850117427382
 21
590.0700730196331
 12
0.0
 22
0.0
 13
0.0
 23
0.0
 72
     1
 10
840.1850117427381
 20
590.0700730196331
 11
907.549306834808
 21
590.0700730196331
 97
        8
330
3B7D
330
3B73
330
3B64
330
3B67
330
3B66
330
3B93
330
3B62
330
3B7F
 75
     0
 76
     1
 52
0.0
 41
1.439999999999999
 77
     0
 78
     1
 53
44.9999999999263
 43
-13567.14483247767
 44
32830.2371815739
 45
-3.232892203584923
 46
3.232892203581286
 79
     0
 47
0.5147252568016311
 98
        1
 10
868.5545954124609
 20
603.2591906740052
  0
LINE
  5
3B62
102
{ACAD_REACTORS
330
3B61
102
}
330
1F
100
AcDbEntity
  8
粗实线
100
AcDbLine
 10
840.1850117427382
 20
590.0700730196331
 30
0.0
 11
907.549306834808
 21
590.0700730196331
 31
0.0
  0
HATCH
  5
3B63
330
1F
100
AcDbEntity
  8
剖切线
100
AcDbHatch
 10
0.0
 20
0.0
 30
0.0
210
0.0
220
0.0
230
1.0
  2
ANSI31
 70
     0
 71
     0
 91
        1
 92
        7
 72
     1
 73
     1
 93
        9
 10
949.3250618283125
 20
590.0700730196331
 42
0.0
 10
946.7966276774896
 20
590.0700730196331
 42
0.0
 10
946.7966276774967
 20
588.4728730196366
 42
0.0
 10
971.691003117041
 20
588.4700730196344
 42
-0.4014906669060269
 10
975.0877670704213
 20
585.2183789366753
 42
0.0
 10
977.3481567213384
 20
533.511135963774
 42
0.0
 10
978.9354521808856
 20
533.7728382639252
 42
0.0
 10
976.6862442249546
 20
585.2881699564603
 42
0.4014906669060269
 10
971.691003117041
 20
590.0700730196331
 42
0.0
 97
        0
 75
     0
 76
     1
 52
90.0
 41
1.0
 77
     0
 78
     1
 53
135.0000000001474
 43
-20259.05682734734
 44
33997.65050332825
 45
-2.245064030266803
 46
-2.24506403027044
 79
     0
 47
0.1745883849316779
 98
        1
 10
963.4027694573523
 20
589.6677344849012
  0
LINE
  5
3B64
102
{ACAD_REACTORS
330
3B61
102
}
330
1F
100
AcDbEntity
  8
粗实线
100
AcDbLine
 10
923.1013068348111
 20
590.0700730196331
 30
0.0
 11
966.8957766513997
 21
590.0700730196331
 31
0.0
  0
LINE
  5
3B65
330
1F
100
AcDbEntity
  8
粗实线
100
AcDbLine
 10
920.8549068348148
 20
588.3420730196303
 30
0.0
 11
924.8293068348068
 21
588.3420730196303
 31
0.0
  0
LINE
  5
3B66
102
{ACAD_REACTORS
330
3B61
102
}
330
1F
100
AcDbEntity
  8
粗实线
100
AcDbLine
 10
840.1850117427382
 20
633.2700730196303
 30
0.0
 11
966.8957766513997
 21
633.2700730196303
 31
0.0
  0
LINE
  5
3B67
102
{ACAD_REACTORS
330
3B61
102
}
330
1F
100
AcDbEntity
  8
粗实线
100
AcDbLine
 10
966.8957766513997
 20
633.2700730196303
 30
0.0
 11
966.8957766513997
 21
590.0700730196331
 31
0.0
  0
HATCH
  5
3B68
330
1F
100
AcDbEntity
  8
剖切线
100
AcDbHatch
 10
0.0
 20
0.0
 30
0.0
210
0.0
220
0.0
230
1.0
  2
ANSI31
 70
     0
 71
     0
 91
        2
 92
        7
 72
     0
 73
     1
 93
        6
 10
905.7781068348123
 20
575.2478782375765
 10
905.7781068348047
 20
568.3358782375943
 10
907.9813068348084
 20
568.3358782375943
 10
907.9813068348084
 20
570.4094782375976
 10
915.3253068348131
 20
570.4094782375976
 10
915.3253068348131
 20
575.2478782375765
 97
        0
 92
        7
 72
     0
 73
     1
 93
        6
 10
915.3253068348131
 20
575.2478782375765
 10
915.3253068348131
 20
570.4094782375976
 10
922.6693068348033
 20
570.4094782375976
 10
922.6693068348033
 20
568.3358782375943
 10
924.8725068348068
 20
568.3358782375943
 10
924.8725068348068
 20
575.2478782375765
 97
        0
 75
     0
 76
     1
 52
90.0
 41
0.864
 77
     0
 78
     1
 53
135.0
 43
5123.788622479013
 44
3523.055589132543
 45
-1.939735322150226
 46
-1.939735322150226
 79
     0
 47
0.1137768334985027
 98
        2
 10
908.7179039816037
 20
574.9720833566316
 10
918.351617310058
 20
573.9883109955626
  0
LINE
  5
3B69
330
1F
100
AcDbEntity
  8
粗实线
 48
0.1
100
AcDbLine
 10
924.8725068348068
 20
568.3358782375652
 30
0.0
 11
905.7781068348047
 21
568.3358782375652
 31
0.0
  0
LINE
  5
3B6A
330
1F
100
AcDbEntity
  8
粗实线
 48
0.1
100
AcDbLine
 10
922.6693068348103
 20
570.4094782375687
 30
0.0
 11
907.9813068348084
 21
570.4094782375687
 31
0.0
  0
LINE
  5
3B6B
330
1F
100
AcDbEntity
  8
粗实线
 48
0.1
100
AcDbLine
 10
924.8725068348068
 20
575.2478782375765
 30
0.0
 11
905.7781068348047
 21
575.2478782375765
 31
0.0
  0
LINE
  5
3B6C
330
1F
100
AcDbEntity
  8
粗实线
 48
0.1
100
AcDbLine
 10
919.6453068348128
 20
613.2638782375652
 30
0.0
 11
911.0053068348062
 21
613.2638782375652
 31
0.0
  0
LINE
  5
3B6D
330
1F
100
AcDbEntity
  8
粗实线
 48
0.1
100
AcDbLine
 10
920.509306834807
 20
612.3998782375783
 30
0.0
 11
910.141306834812
 21
612.3998782375783
 31
0.0
  0
LINE
  5
3B6E
330
1F
100
AcDbEntity
  8
中心线
 48
0.1
100
AcDbLine
 10
915.325306834806
 20
616.2599104769832
 30
0.0
 11
915.325306834806
 21
564.3712739471157
 31
0.0
  0
LINE
  5
3B6F
330
1F
100
AcDbEntity
  8
粗实线
 48
0.1
100
AcDbLine
 10
910.141306834812
 20
612.3998782375783
 30
0.0
 11
910.141306834812
 21
575.2478782375765
 31
0.0
  0
LINE
  5
3B70
330
1F
100
AcDbEntity
  8
细实线
 48
0.1
100
AcDbLine
 10
911.0053068348062
 20
613.2638782375652
 30
0.0
 11
911.0053068348062
 21
575.2478782375765
 31
0.0
  0
LINE
  5
3B71
330
1F
100
AcDbEntity
  8
粗实线
 48
0.1
100
AcDbLine
 10
920.509306834807
 20
612.3998782375783
 30
0.0
 11
920.509306834807
 21
575.2478782375765
 31
0.0
  0
LINE
  5
3B72
330
1F
100
AcDbEntity
  8
粗实线
 48
0.1
100
AcDbLine
 10
920.8549068348148
 20
613.8032253585042
 30
0.0
 11
920.8549068348148
 21
588.3420730196303
 31
0.0
  0
LINE
  5
3B73
102
{ACAD_REACTORS
330
3B61
102
}
330
1F
100
AcDbEntity
  8
粗实线
 48
0.1
100
AcDbLine
 10
923.1013068348111
 20
613.8032253585042
 30
0.0
 11
923.1013068348111
 21
590.0700730196331
 31
0.0
  0
LINE
  5
3B74
330
1F
100
AcDbEntity
  8
粗实线
 48
0.1
100
AcDbLine
 10
924.8293068348068
 20
590.0700730196331
 30
0.0
 11
924.8293068348068
 21
588.3420730196303
 31
0.0
  0
LINE
  5
3B75
330
1F
100
AcDbEntity
  8
细实线
 48
0.1
100
AcDbLine
 10
919.6453068348128
 20
613.2638782375652
 30
0.0
 11
919.6453068348128
 21
575.2478782375765
 31
0.0
  0
LINE
  5
3B76
330
1F
100
AcDbEntity
  8
粗实线
 48
0.1
100
AcDbLine
 10
907.9813068348084
 20
570.4094782375687
 30
0.0
 11
907.9813068348084
 21
568.3358782375652
 31
0.0
  0
LINE
  5
3B77
330
1F
100
AcDbEntity
  8
粗实线
 48
0.1
100
AcDbLine
 10
922.6693068348103
 20
570.4094782375687
 30
0.0
 11
922.6693068348103
 21
568.3358782375652
 31
0.0
  0
LINE
  5
3B78
330
1F
100
AcDbEntity
  8
粗实线
 48
0.1
100
AcDbLine
 10
905.7781068348047
 20
575.2478782375765
 30
0.0
 11
905.7781068348047
 21
568.3358782375652
 31
0.0
  0
LINE
  5
3B79
330
1F
100
AcDbEntity
  8
粗实线
 48
0.1
100
AcDbLine
 10
924.8725068348068
 20
575.2478782375765
 30
0.0
 11
924.8725068348068
 21
568.3358782375652
 31
0.0
  0
LINE
  5
3B7A
330
1F
100
AcDbEntity
  8
粗实线
 48
0.1
100
AcDbLine
 10
911.0053068348062
 20
613.2638782375652
 30
0.0
 11
910.141306834812
 21
612.3998782375783
 31
0.0
  0
LINE
  5
3B7B
330
1F
100
AcDbEntity
  8
粗实线
 48
0.1
100
AcDbLine
 10
919.6453068348128
 20
613.2638782375652
 30
0.0
 11
920.509306834807
 21
612.3998782375783
 31
0.0
  0
LINE
  5
3B7C
330
1F
100
AcDbEntity
  8
粗实线
100
AcDbLine
 10
909.7957068348112
 20
588.3420730196303
 30
0.0
 11
905.8213068348052
 21
588.3420730196303
 31
0.0
  0
LINE
  5
3B7D
102
{ACAD_REACTORS
330
3B61
102
}
330
1F
100
AcDbEntity
  8
粗实线
 48
0.1
100
AcDbLine
 10
907.549306834808
 20
613.8032253585042
 30
0.0
 11
923.1013068348111
 21
613.8032253585042
 31
0.0
  0
LINE
  5
3B7E
330
1F
100
AcDbEntity
  8
粗实线
 48
0.1
100
AcDbLine
 10
909.7957068348112
 20
613.8032253585042
 30
0.0
 11
909.7957068348112
 21
588.3420730196303
 31
0.0
  0
LINE
  5
3B7F
102
{ACAD_REACTORS
330
3B61
102
}
330
1F
100
AcDbEntity
  8
粗实线
 48
0.1
100
AcDbLine
 10
907.549306834808
 20
613.8032253585042
 30
0.0
 11
907.549306834808
 21
590.0700730196331
 31
0.0
  0
LINE
  5
3B80
330
1F
100
AcDbEntity
  8
粗实线
 48
0.1
100
AcDbLine
 10
905.8213068348052
 20
590.0700730196331
 30
0.0
 11
905.8213068348052
 21
588.3420730196303
 31
0.0
  0
LINE
  5
3B81
330
1F
100
AcDbEntity
  8
中心线
 48
0.1
100
AcDbLine
 10
915.325306834806
 20
565.3337582742023
 30
0.0
 11
915.325306834806
 21
598.8080088358327
 31
0.0
  0
HATCH
  5
3B82
330
1F
100
AcDbEntity
  8
剖切线
100
AcDbHatch
 10
0.0
 20
0.0
 30
0.0
210
0.0
220
0.0
230
1.0
  2
ANSI31
 70
     0
 71
     0
 91
        1
 92
        7
 72
     1
 73
     1
 93
        8
 10
883.37570482726
 20
580.135966757276
 42
-0.3003703345698272
 10
877.3374987310017
 20
584.7797326498183
 42
0.0
 10
875.6202315462651
 20
589.7670386876198
 42
0.0
 10
872.3525193489987
 20
588.6418751458186
 42
0.0
 10
874.0697865337279
 20
583.6545691080317
 42
0.3003703345697881
 10
883.1270956781152
 20
576.6889202692036
 42
0.0070565129482686
 10
899.7792474117376
 20
575.7239339098522
 42
0.0
 10
899.8395839470976
 20
579.1806117052982
 42
-0.0070177978545288
 97
        0
 75
     0
 76
     1
 52
-0.9999999998692691
 41
0.864
 77
     0
 78
     1
 53
43.99999999980777
 43
3790.972324452829
 44
-3850.17379708535
 45
-1.905586841843613
 46
1.973292940288956
 79
     0
 47
0.1104702278856199
 98
        1
 10
889.8017609410235
 20
579.0822158474692
  0
LINE
  5
3B83
330
1F
100
AcDbEntity
  8
粗实线
100
AcDbLine
 10
899.7792474117376
 20
575.7239339098377
 30
0.0
 11
899.8395839470903
 21
579.1806117052836
 31
0.0
  0
LINE
  5
3B84
330
1F
100
AcDbEntity
  8
粗实线
100
AcDbLine
 10
930.8785101218816
 20
575.1810942600203
 30
0.0
 11
930.9388466572343
 21
578.6377720554663
 31
0.0
  0
ARC
  5
3B85
330
1F
100
AcDbEntity
  8
粗实线
100
AcDbCircle
 10
925.6392601814878
 20
1166.133869730322
 30
0.0
 40
587.5199999999998
100
AcDbArc
 50
265.8748354479635
 51
268.4884423860381
  0
ARC
  5
3B86
330
1F
100
AcDbEntity
  8
粗实线
100
AcDbCircle
 10
925.6392601814878
 20
1166.133869730322
 30
0.0
 40
587.5199999999998
100
AcDbArc
 50
269.4997133534757
 51
272.0817910569185
  0
ARC
  5
3B87
330
1F
100
AcDbEntity
  8
粗实线
100
AcDbCircle
 10
883.872923125542
 20
587.0300597334062
 30
0.0
 40
6.912
100
AcDbArc
 50
198.999999999799
 51
265.8748354479628
  0
ARC
  5
3B88
330
1F
100
AcDbEntity
  8
粗实线
100
AcDbCircle
 10
883.872923125542
 20
587.0300597334062
 30
0.0
 40
10.368
100
AcDbArc
 50
198.9999999997986
 51
265.8748354479629
  0
ARC
  5
3B89
330
1F
100
AcDbEntity
  8
粗实线
100
AcDbCircle
 10
925.6392601814878
 20
1166.133869730322
 30
0.0
 40
590.976
100
AcDbArc
 50
265.8748354479635
 51
272.0817910569185
  0
LINE
  5
3B8A
330
1F
100
AcDbEntity
  8
粗实线
100
AcDbLine
 10
875.6202315462651
 20
589.7670386876052
 30
0.0
 11
877.3374987310017
 21
584.7797326498038
 31
0.0
  0
LINE
  5
3B8B
330
1F
100
AcDbEntity
  8
粗实线
100
AcDbLine
 10
872.3525193489914
 20
588.6418751457893
 30
0.0
 11
874.0697865337279
 21
583.6545691080027
 31
0.0
  0
LINE
  5
3B8C
330
1F
100
AcDbEntity
  8
粗实线
100
AcDbLine
 10
872.3525193489914
 20
588.6418751457893
 30
0.0
 11
875.6202315462651
 21
589.7670386876052
 31
0.0
  0
ARC
  5
3B8D
330
1F
100
AcDbEntity
  8
粗实线
100
AcDbCircle
 10
947.1697228059927
 20
585.9252099852382
 30
0.0
 40
6.912
100
AcDbArc
 50
272.1251645519258
 51
339.0000000002046
  0
ARC
  5
3B8E
330
1F
100
AcDbEntity
  8
粗实线
100
AcDbCircle
 10
947.1697228059927
 20
585.9252099852382
 30
0.0
 40
10.368
100
AcDbArc
 50
272.1251645523445
 51
339.0000000002048
  0
LINE
  5
3B8F
330
1F
100
AcDbEntity
  8
粗实线
100
AcDbLine
 10
955.512906256532
 20
588.3725068632411
 30
0.0
 11
953.622630713944
 21
583.4481707179874
 31
0.0
  0
LINE
  5
3B90
330
1F
100
AcDbEntity
  8
粗实线
100
AcDbLine
 10
958.7393602105077
 20
587.1339872296013
 30
0.0
 11
956.8490846679196
 21
582.209651084362
 31
0.0
  0
LINE
  5
3B91
330
1F
100
AcDbEntity
  8
粗实线
100
AcDbLine
 10
958.7393602105077
 20
587.1339872296013
 30
0.0
 11
955.512906256532
 21
588.3725068632411
 31
0.0
  0
HATCH
  5
3B92
330
1F
100
AcDbEntity
  8
剖切线
100
AcDbHatch
 10
0.0
 20
0.0
 30
0.0
210
0.0
220
0.0
230
1.0
  2
ANSI31
 70
     0
 71
     0
 91
        1
 92
        7
 72
     1
 73
     1
 93
        8
 10
930.9388466572418
 20
578.6377720554663
 42
0.0070177978545289
 10
947.4260378372418
 20
579.0179640359054
 42
0.3003703345697906
 10
953.6226307139513
 20
583.4481707179874
 42
0.0
 10
955.512906256532
 20
588.3725068632555
 42
0.0
 10
958.7393602105077
 20
587.1339872296157
 42
0.0
 10
956.8490846679123
 20
582.2096510843765
 42
-0.3003703345697732
 10
947.5541953528663
 20
575.5643410612463
 42
-0.0070565129482688
 10
930.8785101218816
 20
575.1810942600059
 42
0.0
 97
        0
 75
     0
 76
     1
 52
-0.9999999998692691
 41
0.864
 77
     0
 78
     1
 53
43.99999999980777
 43
3790.972324452829
 44
-3850.17379708535
 45
-1.905586841843613
 46
1.973292940288956
 79
     0
 47
0.1104702278856199
 98
        1
 10
940.9671209268344
 20
578.1891211668335
  0
SPLINE
  5
3B93
102
{ACAD_REACTORS
330
3B61
102
}
330
1F
100
AcDbEntity
  8
细实线
100
AcDbSpline
210
0.0
220
0.0
230
1.0
 70
  1064
 71
     3
 72
    11
 73
     7
 74
     5
 42
0.000000001
 43
0.0000000001
 44
0.0000000001
 40
0.0
 40
0.0
 40
0.0
 40
0.0
 40
12.6914133051571
 40
25.64182523175289
 40
37.49872691533479
 40
45.6707937178023
 40
45.6707937178023
 40
45.6707937178023
 40
45.6707937178023
 10
840.1850117427382
 20
633.2700730196303
 30
0.0
 10
842.7209782546682
 20
629.3542564436181
 30
0.0
 10
847.844663736258
 20
621.4427116954136
 30
0.0
 10
837.9217147918845
 20
609.6017896099576
 30
0.0
 10
845.6718565974746
 20
598.5080759459828
 30
0.0
 10
841.7749839628694
 20
592.5152287696996
 30
0.0
 10
840.1850117427382
 20
590.0700730196331
 30
0.0
 11
840.1850117427382
 21
633.2700730196303
 31
0.0
 11
844.8754895467644
 21
621.4772196900812
 31
0.0
 11
841.0101009286227
 21
609.117125034325
 31
0.0
 11
843.5226398387822
 21
597.5294908599535
 31
0.0
 11
840.1850117427382
 21
590.0700730196331
 31
0.0
  0
LINE
  5
3B94
330
1F
100
AcDbEntity
  8
粗实线
 62
     0
100
AcDbLine
 10
978.9354521808927
 20
533.7728382639252
 30
0.0
 11
976.6862442249546
 21
585.2881699564603
 31
0.0
  0
LINE
  5
3B95
330
1F
100
AcDbEntity
  8
粗实线
 62
     0
100
AcDbLine
 10
977.3481567213384
 20
533.511135963774
 30
0.0
 11
975.0877670704213
 21
585.2183789366753
 31
0.0
  0
LINE
  5
3B96
330
1F
100
AcDbEntity
  8
粗实线
 62
     0
100
AcDbLine
 10
949.3250618283125
 20
590.0700730196331
 30
0.0
 11
971.691003117041
 21
590.0700730196331
 31
0.0
  0
ARC
  5
3B97
330
1F
100
AcDbEntity
  8
粗实线
 62
     0
100
AcDbCircle
 10
971.691003117041
 20
585.0700730196331
 30
0.0
 40
5.0
100
AcDbArc
 50
2.500000000178581
 51
90.0
  0
ARC
  5
3B98
330
1F
100
AcDbEntity
  8
粗实线
 62
     0
100
AcDbCircle
 10
971.691003117041
 20
585.0700730196331
 30
0.0
 40
3.399999999999999
100
AcDbArc
 50
2.500000000177184
 51
90.0
  0
LINE
  5
3B99
330
1F
100
AcDbEntity
  8
粗实线
 62
     0
100
AcDbLine
 10
946.7966276774896
 20
588.4728730196439
 30
0.0
 11
971.691003117041
 21
588.4700730196344
 31
0.0
  0
LINE
  5
3B9A
330
1F
100
AcDbEntity
  8
粗实线
 62
     0
100
AcDbLine
 10
971.691003117041
 20
590.0700730196331
 30
0.0
 11
994.7196207285378
 21
590.0700730196331
 31
0.0
  0
LINE
  5
3B9B
330
1F
100
AcDbEntity
  8
粗实线
100
AcDbLine
 10
946.7966276774896
 20
590.0700730196331
 30
0.0
 11
946.7966276774896
 21
588.4728730196439
 31
0.0
  0
LINE
  5
3B9C
330
1F
100
AcDbEntity
  8
粗实线
100
AcDbLine
 10
975.0877670704213
 20
588.7391321149626
 30
0.0
 11
1004.001345894423
 21
615.3272057192663
 31
0.0
  0
LINE
  5
3B9D
330
1F
100
AcDbEntity
  8
粗实线
100
AcDbLine
 10
1004.001345894423
 20
615.3272057192663
 30
0.0
 11
1006.148172182635
 21
615.3272057192663
 31
0.0
  0
LINE
  5
3B9E
330
1F
100
AcDbEntity
  8
粗实线
100
AcDbLine
 10
903.5403941970725
 20
633.2700730196303
 30
0.0
 11
890.0663579922838
 21
648.8286300288891
 31
0.0
  0
LINE
  5
3B9F
330
1F
100
AcDbEntity
  8
粗实线
100
AcDbLine
 10
890.0663579922838
 20
648.8286300288891
 30
0.0
 11
885.5755791533736
 21
648.8286300288891
 31
0.0
  0
LINE
  5
3BA0
330
1F
100
AcDbEntity
  8
粗实线
100
AcDbLine
 10
883.1270956783264
 20
576.6889202691744
 30
0.0
 11
870.0246521971202
 21
559.7351081064333
 31
0.0
  0
LINE
  5
3BA1
330
1F
100
AcDbEntity
  8
粗实线
100
AcDbLine
 10
870.0246521971202
 20
559.7351081064333
 30
0.0
 11
863.9390986168072
 21
559.7351081064333
 31
0.0
  0
LINE
  5
3BA2
330
1F
100
AcDbEntity
  8
粗实线
100
AcDbLine
 10
906.5842310141597
 20
569.1162805068816
 30
0.0
 11
907.8376663870656
 21
543.9329753862693
 31
0.0
  0
LINE
  5
3BA3
330
1F
100
AcDbEntity
  8
粗实线
100
AcDbLine
 10
911.2076801238508
 20
543.9329753862693
 30
0.0
 11
907.8376663870656
 21
543.9329753862693
 31
0.0
  0
MTEXT
  5
3BA4
330
1F
100
AcDbEntity
  8
粗实线
100
AcDbMText
 10
1008.878375720931
 20
620.8853168370843
 30
0.0
 40
8.0
 41
830.7084505341753
 46
0.0
 71
     1
 72
     5
  1
{\fTahoma|b0|i0|c0|p34;SINK}
 73
     1
 44
1.0
1001
ACAD
1000
MTEXTBEGIN
1070
    73
1070
     1
1070
    44
1040
1.0
1070
    74
1070
     0
1000
MTEXTEND
  0
MTEXT
  5
3BA5
330
1F
100
AcDbEntity
  8
粗实线
100
AcDbMText
 10
814.4315825595404
 20
654.2397114912746
 30
0.0
 40
8.0
 41
830.7084505341753
 46
0.0
 71
     1
 72
     5
  1
{\fTahoma|b0|i0|c0|p34;COUNTERTOP}
 73
     1
 44
1.0
1001
ACAD
1000
MTEXTBEGIN
1070
    73
1070
     1
1070
    44
1040
1.0
1070
    74
1070
     0
1000
MTEXTEND
  0
MTEXT
  5
3BA6
330
1F
100
AcDbEntity
  8
粗实线
100
AcDbMText
 10
809.7850825725037
 20
563.9489060382548
 30
0.0
 40
8.0
 41
830.7084505341753
 46
0.0
 71
     1
 72
     5
  1
{\fTahoma|b0|i0|c0|p34;FASTENER}
 73
     1
 44
1.0
1001
ACAD
1000
MTEXTBEGIN
1070
    73
1070
     1
1070
    44
1040
1.0
1070
    74
1070
     0
1000
MTEXTEND
  0
MTEXT
  5
3BA7
330
1F
100
AcDbEntity
  8
粗实线
100
AcDbMText
 10
912.7591690745319
 20
549.1636180522617
 30
0.0
 40
8.0
 41
830.7084505341753
 46
0.0
 71
     1
 72
     5
  1
{\fTahoma|b0|i0|c0|p34;SCREWS}
 73
     1
 44
1.0
1001
ACAD
1000
MTEXTBEGIN
1070
    73
1070
     1
1070
    44
1040
1.0
1070
    74
1070
     0
1000
MTEXTEND
  0
LWPOLYLINE
  5
3EA9
330
1F
100
AcDbEntity
  8
虚线
 48
3.0
100
AcDbPolyline
 90
       15
 70
     0
 43
0.0
 10
355.2757564054628
 20
642.4234679643705
 42
-0.3694296208365686
 10
420.5418423062438
 20
705.8637164148312
 42
-0.0158655269025378
 10
483.9560469316711
 20
707.8764225820268
 10
671.2321688208247
 20
707.8764225820268
 42
0.2061575227368402
 10
693.0276217832942
 20
717.261907546228
 42
-0.1519702509036232
 10
770.7400686170804
 20
760.8948576782132
 42
-0.1053731222139582
 10
979.171990269031
 20
760.8948651323152
 42
-0.3463545867129854
 10
1097.852004773514
 20
618.2584478706921
 42
-0.0197738800363851
 10
1094.908045707118
 20
381.0829020695601
 42
-0.3852360558781482
 10
1018.853251186483
 20
305.3294774120295
 42
-0.0119966120562112
 10
874.9560469317147
 20
301.8764225820269
 10
483.9560469317001
 20
301.8764225820269
 42
-0.0158655269025502
 10
420.5418423062365
 20
303.8891287492297
 42
-0.3694296208365414
 10
355.2757564054628
 20
367.3293771996978
 42
-0.0459458035760589
 10
355.2757566284199
 20
642.4234703855327
 42
-21.76477332352224
  0
SOLID
  5
3FD6
330
1F
100
AcDbEntity
  8
粗实线
100
AcDbTrace
 10
530.0403675006964
 20
311.0699118690973
 30
0.0
 11
532.0439530682997
 21
302.3764225820269
 31
0.0
 12
527.3291593842222
 22
309.9501819938159
 32
0.0
 13
527.3291593842222
 23
309.9501819938159
 33
0.0
1001
ACAD
1000
DSTYLE
1002
{
1070
    41
1040
8.0
1070
   147
1040
3.0
1070
    77
1070
     0
1002
}
  0
MTEXT
  5
3FD7
330
1F
100
AcDbEntity
  8
粗实线
100
AcDbMText
 10
468.7237986172258
 20
342.5453893854938
 30
0.0
 40
8.0
 41
306.8846549670925
 46
0.0
 71
     1
 72
     5
  1
{\fTahoma|b0|i0|c0|p34;Use this line for FLUSH MOUNT CUT.}
  7
样式 8
 73
     1
 44
1.0
1001
ACAD
1000
MTEXTBEGIN
1070
    73
1070
     1
1070
    44
1040
1.0
1070
    74
1070
     0
1000
MTEXTEND
  0
LINE
  5
3FD8
330
1F
100
AcDbEntity
  8
0
100
AcDbLine
 10
528.9901443175331
 20
309.7706265360539
 30
0.0
 11
520.4629255739855
 21
330.4176282628396
 31
0.0
  0
MTEXT
  5
3FD9
102
{ACAD_XDICTIONARY
360
421A
102
}
330
1F
100
AcDbEntity
  8
粗实线
100
AcDbMText
 10
403.2751204505693
 20
579.2486269355067
 30
0.0
 40
10.0
 41
830.7084505341753
 46
0.0
 71
     1
 72
     5
  1
\fArial|b0|i0|c0|p34;Use outside line for reveal mount cut:\PSink rim is ¼” revealed from the countertop opening.
 73
     1
 44
1.0
1001
ACAD
1000
MTEXTBEGIN
1070
    73
1070
     1
1070
    44
1040
1.0
1070
    74
1070
     0
1000
MTEXTEND
  0
MTEXT
  5
3FDA
330
1F
100
AcDbEntity
  8
粗实线
100
AcDbMText
 10
403.2751204505693
 20
529.3191511869954
 30
0.0
 40
10.0
 41
830.7084505341753
 46
0.0
 71
     1
 72
     5
  1
\fArial|b0|i0|c0|p34;Use middle line for flush mount cut:\PSink wall is flush to the edge of countertop opening.
 73
     1
 44
1.0
1001
ACAD
1000
MTEXTBEGIN
1070
    73
1070
     1
1070
    44
1040
1.0
1070
    74
1070
     0
1000
MTEXTEND
  0
MTEXT
  5
3FDB
102
{ACAD_XDICTIONARY
360
421C
102
}
330
1F
100
AcDbEntity
  8
粗实线
100
AcDbMText
 10
403.2751204505693
 20
475.8023367929999
 30
0.0
 40
10.0
 41
830.7084505341753
 46
0.0
 71
     1
 72
     5
  1
\fArial|b0|i0|c0|p34;Use inside line for negative reveal mount cut:\PSink wall is covered ¼” inside the edge of countertop opening.
 73
     1
 44
1.0
1001
ACAD
1000
MTEXTBEGIN
1070
    73
1070
     1
1070
    44
1040
1.0
1070
    74
1070
     0
1000
MTEXTEND
  0
MTEXT
  5
3FDC
330
1F
100
AcDbEntity
  8
粗实线
100
AcDbMText
 10
403.2751204505693
 20
421.7055435647997
 30
0.0
 40
10.0
 41
830.7084505341753
 46
0.0
 71
     1
 72
     5
  1
\fArial|b0|i0|c0|p34;Please check actual template against physical sink unit for most accurate cut.
 73
     1
 44
1.0
1001
ACAD
1000
MTEXTBEGIN
1070
    73
1070
     1
1070
    44
1040
1.0
1070
    74
1070
     0
1000
MTEXTEND
  0
TEXT
  5
4254
330
1F
100
AcDbEntity
  8
0
 62
     7
100
AcDbText
 10
732.9999998398225
 20
327.5000011279037
 30
0.0
 40
17.49958061018237
  1
T-3070 Flush Cutout
100
AcDbText
  0
DIMENSION
  5
4282
330
1F
100
AcDbEntity
  8
标注
100
AcDbDimension
280
     0
  2
*D13
 10
1098.724965635433
 20
843.5225673309666
 30
0.0
 11
716.4999999999991
 21
843.5225673309666
 31
0.0
 70
   160
  1
{\fArial|b0|i0|c0|p34;<>}
 71
     5
 42
749.7689187037174
 73
     0
 74
     0
 75
     0
  3
英寸
100
AcDbAlignedDimension
 13
348.9560469317162
 23
504.8764225820259
 33
0.0
 14
1098.724965635433
 24
499.6415682234207
 34
0.0
 50
180.0
100
AcDbRotatedDimension
1001
ACAD
1000
DSTYLE
1002
{
1070
    41
1040
8.0
1002
}
  0
DIMENSION
  5
4283
330
1F
100
AcDbEntity
  8
标注
100
AcDbDimension
280
     0
  2
*D14
 10
1170.763770435233
 20
301.8764225820271
 30
0.0
 11
1170.763770435233
 21
536.6500000000009
 31
0.0
 70
   160
  1
{\fArial|b0|i0|c0|p34;<>}
 71
     5
 42
469.9999999999979
 73
     0
 74
     0
 75
     0
  3
英寸
100
AcDbAlignedDimension
 13
874.9560290503248
 23
771.8764225820247
 33
0.0
 14
874.9560469316667
 24
301.8764225820269
 34
0.0
 50
90.0
100
AcDbRotatedDimension
1001
ACAD
1000
DSTYLE
1002
{
1070
    41
1040
8.0
1002
}
  0
ENDSEC
  0
SECTION
  2
OBJECTS
  0
DICTIONARY
  5
C
330
0
100
AcDbDictionary
281
     1
  3
ACAD_CIP_PREVIOUS_PRODUCT_INFO
350
4249
  3
ACAD_COLOR
350
3513
  3
ACAD_DETAILVIEWSTYLE
350
4240
  3
ACAD_GROUP
350
D
  3
ACAD_LAYOUT
350
1A
  3
ACAD_MATERIAL
350
350F
  3
ACAD_MLEADERSTYLE
350
423C
  3
ACAD_MLINESTYLE
350
17
  3
ACAD_PLOTSETTINGS
350
19
  3
ACAD_PLOTSTYLENAME
350
E
  3
ACAD_SCALELIST
350
422A
  3
ACAD_SECTIONVIEWSTYLE
350
423E
  3
ACAD_TABLESTYLE
350
E9
  3
ACAD_VISUALSTYLE
350
28
  3
ACDB_RECOMPOSE_DATA
350
42F0
  3
AcDbVariableDictionary
350
366A
  0
DICTIONARY
  5
36E2
330
2
100
AcDbDictionary
280
     1
281
     1
  3
ACAD_LAYERSTATES
360
36E3
  0
DICTIONARY
  5
42C2
330
10
100
AcDbDictionary
280
     1
281
     1
  3
ADSK_XREC_LAYER_RECONCILED
360
42C3
  0
DICTIONARY
  5
42C4
330
5C
100
AcDbDictionary
280
     1
281
     1
  3
ADSK_XREC_LAYER_RECONCILED
360
42C5
  0
DICTIONARY
  5
42C6
330
5D
100
AcDbDictionary
280
     1
281
     1
  3
ADSK_XREC_LAYER_RECONCILED
360
42C7
  0
DICTIONARY
  5
42C8
330
5E
100
AcDbDictionary
280
     1
281
     1
  3
ADSK_XREC_LAYER_RECONCILED
360
42C9
  0
DICTIONARY
  5
42CA
330
118
100
AcDbDictionary
280
     1
281
     1
  3
ADSK_XREC_LAYER_RECONCILED
360
42CB
  0
DICTIONARY
  5
42CC
330
193
100
AcDbDictionary
280
     1
281
     1
  3
ADSK_XREC_LAYER_RECONCILED
360
42CD
  0
DICTIONARY
  5
42CE
330
357
100
AcDbDictionary
280
     1
281
     1
  3
ADSK_XREC_LAYER_RECONCILED
360
42CF
  0
DICTIONARY
  5
42D0
330
358
100
AcDbDictionary
280
     1
281
     1
  3
ADSK_XREC_LAYER_RECONCILED
360
42D1
  0
DICTIONARY
  5
42D2
330
4E7
100
AcDbDictionary
280
     1
281
     1
  3
ADSK_XREC_LAYER_RECONCILED
360
42D3
  0
DICTIONARY
  5
42D4
330
4E8
100
AcDbDictionary
280
     1
281
     1
  3
ADSK_XREC_LAYER_RECONCILED
360
42D5
  0
DICTIONARY
  5
42D6
330
4E9
100
AcDbDictionary
280
     1
281
     1
  3
ADSK_XREC_LAYER_RECONCILED
360
42D7
  0
DICTIONARY
  5
42D8
330
4EA
100
AcDbDictionary
280
     1
281
     1
  3
ADSK_XREC_LAYER_RECONCILED
360
42D9
  0
DICTIONARY
  5
42DA
330
4EB
100
AcDbDictionary
280
     1
281
     1
  3
ADSK_XREC_LAYER_RECONCILED
360
42DB
  0
DICTIONARY
  5
42DC
330
112F
100
AcDbDictionary
280
     1
281
     1
  3
ADSK_XREC_LAYER_RECONCILED
360
42DD
  0
DICTIONARY
  5
42DE
330
121D
100
AcDbDictionary
280
     1
281
     1
  3
ADSK_XREC_LAYER_RECONCILED
360
42DF
  0
DICTIONARY
  5
42E0
330
121E
100
AcDbDictionary
280
     1
281
     1
  3
ADSK_XREC_LAYER_RECONCILED
360
42E1
  0
DICTIONARY
  5
421A
330
3FD9
100
AcDbDictionary
280
     1
281
     1
  0
DICTIONARY
  5
421C
330
3FDB
100
AcDbDictionary
280
     1
281
     1
  0
XRECORD
  5
4249
102
{ACAD_REACTORS
330
C
102
}
330
C
100
AcDbXrecord
280
     1
300
ACD
300
2017
300
ACD_F_S
  0
DICTIONARY
  5
3513
102
{ACAD_REACTORS
330
C
102
}
330
C
100
AcDbDictionary
281
     1
  0
DICTIONARY
  5
4240
102
{ACAD_REACTORS
330
C
102
}
330
C
100
AcDbDictionary
281
     1
  3
Imperial24
350
4241
  0
DICTIONARY
  5
D
102
{ACAD_REACTORS
330
C
102
}
330
C
100
AcDbDictionary
281
     1
  0
DICTIONARY
  5
1A
102
{ACAD_REACTORS
330
C
102
}
330
C
100
AcDbDictionary
281
     1
  3
Layout1
350
1E
  3
Layout2
350
24
  3
Model
350
22
  0
DICTIONARY
  5
350F
102
{ACAD_REACTORS
330
C
102
}
330
C
100
AcDbDictionary
281
     1
  3
ByBlock
350
3511
  3
ByLayer
350
3510
  3
Global
350
3512
  0
DICTIONARY
  5
423C
102
{ACAD_REACTORS
330
C
102
}
330
C
100
AcDbDictionary
281
     1
  3
Standard
350
423D
  0
DICTIONARY
  5
17
102
{ACAD_REACTORS
330
C
102
}
330
C
100
AcDbDictionary
281
     1
  3
Standard
350
18
  0
DICTIONARY
  5
19
102
{ACAD_REACTORS
330
C
102
}
330
C
100
AcDbDictionary
281
     1
  0
ACDBDICTIONARYWDFLT
  5
E
102
{ACAD_REACTORS
330
C
102
}
330
C
100
AcDbDictionary
281
     1
  3
Normal
350
F
100
AcDbDictionaryWithDefault
340
F
  0
DICTIONARY
  5
422A
102
{ACAD_REACTORS
330
C
102
}
330
C
100
AcDbDictionary
281
     1
  3
A0
350
422B
  3
A1
350
422C
  3
A2
350
422D
  3
A3
350
422E
  3
A4
350
422F
  3
A5
350
4230
  3
A6
350
4231
  3
A7
350
4232
  3
A8
350
4233
  3
A9
350
4234
  3
B0
350
4235
  3
B1
350
4236
  3
B2
350
4237
  3
B3
350
4238
  3
B4
350
4239
  3
B5
350
423A
  3
B6
350
423B
  0
DICTIONARY
  5
423E
102
{ACAD_REACTORS
330
C
102
}
330
C
100
AcDbDictionary
281
     1
  3
Imperial24
350
423F
  0
DICTIONARY
  5
E9
102
{ACAD_REACTORS
330
C
102
}
330
C
100
AcDbDictionary
281
     1
  3
Standard
350
3514
  0
DICTIONARY
  5
28
102
{ACAD_REACTORS
330
C
102
}
330
C
100
AcDbDictionary
281
     1
  3
2dWireframe
350
2D
  3
3D Hidden
350
2F
  3
3dWireframe
350
2E
  3
Basic
350
30
  3
Brighten
350
34
  3
ColorChange
350
38
  3
Conceptual
350
32
  3
Dim
350
33
  3
EdgeColorOff
350
4229
  3
Facepattern
350
37
  3
Flat
350
29
  3
FlatWithEdges
350
2A
  3
Gouraud
350
2B
  3
GouraudWithEdges
350
2C
  3
Hidden
350
4221
  3
JitterOff
350
4227
  3
Linepattern
350
36
  3
OverhangOff
350
4228
  3
Realistic
350
31
  3
Shaded
350
4226
  3
Shaded with edges
350
4225
  3
Shades of Gray
350
4222
  3
Sketchy
350
4223
  3
Thicken
350
35
  3
Wireframe
350
4220
  3
X-Ray
350
4224
  0
XRECORD
  5
42F0
102
{ACAD_REACTORS
330
C
102
}
330
C
100
AcDbXrecord
280
     1
 90
        1
330
3514
330
423F
330
4241
  0
DICTIONARY
  5
366A
102
{ACAD_REACTORS
330
C
102
}
330
C
100
AcDbDictionary
281
     1
  3
CANNOSCALE
350
42E6
  3
CMLEADERSTYLE
350
42E2
  3
CTABLESTYLE
350
366B
  3
CVIEWDETAILSTYLE
350
42E3
  3
CVIEWSECTIONSTYLE
350
42E4
  3
DGNFRAME
350
41E4
  3
DIMASSOC
350
41E3
  3
HIDETEXT
350
41E2
  3
INDEXCTL
350
41E1
  3
LAYEREVAL
350
42E8
  3
LAYERNOTIFY
350
42E9
  3
LIGHTINGUNITS
350
42E7
  3
MSLTSCALE
350
42E5
  3
SORTENTS
350
41E0
  0
DICTIONARY
  5
36E3
102
{ACAD_REACTORS
330
36E2
102
}
330
36E2
100
AcDbDictionary
281
     1
  0
XRECORD
  5
42C3
102
{ACAD_REACTORS
330
42C2
102
}
330
42C2
100
AcDbXrecord
280
     1
290
     1
  0
XRECORD
  5
42C5
102
{ACAD_REACTORS
330
42C4
102
}
330
42C4
100
AcDbXrecord
280
     1
290
     1
  0
XRECORD
  5
42C7
102
{ACAD_REACTORS
330
42C6
102
}
330
42C6
100
AcDbXrecord
280
     1
290
     1
  0
XRECORD
  5
42C9
102
{ACAD_REACTORS
330
42C8
102
}
330
42C8
100
AcDbXrecord
280
     1
290
     1
  0
XRECORD
  5
42CB
102
{ACAD_REACTORS
330
42CA
102
}
330
42CA
100
AcDbXrecord
280
     1
290
     1
  0
XRECORD
  5
42CD
102
{ACAD_REACTORS
330
42CC
102
}
330
42CC
100
AcDbXrecord
280
     1
290
     1
  0
XRECORD
  5
42CF
102
{ACAD_REACTORS
330
42CE
102
}
330
42CE
100
AcDbXrecord
280
     1
290
     1
  0
XRECORD
  5
42D1
102
{ACAD_REACTORS
330
42D0
102
}
330
42D0
100
AcDbXrecord
280
     1
290
     1
  0
XRECORD
  5
42D3
102
{ACAD_REACTORS
330
42D2
102
}
330
42D2
100
AcDbXrecord
280
     1
290
     1
  0
XRECORD
  5
42D5
102
{ACAD_REACTORS
330
42D4
102
}
330
42D4
100
AcDbXrecord
280
     1
290
     1
  0
XRECORD
  5
42D7
102
{ACAD_REACTORS
330
42D6
102
}
330
42D6
100
AcDbXrecord
280
     1
290
     1
  0
XRECORD
  5
42D9
102
{ACAD_REACTORS
330
42D8
102
}
330
42D8
100
AcDbXrecord
280
     1
290
     1
  0
XRECORD
  5
42DB
102
{ACAD_REACTORS
330
42DA
102
}
330
42DA
100
AcDbXrecord
280
     1
290
     1
  0
XRECORD
  5
42DD
102
{ACAD_REACTORS
330
42DC
102
}
330
42DC
100
AcDbXrecord
280
     1
290
     1
  0
XRECORD
  5
42DF
102
{ACAD_REACTORS
330
42DE
102
}
330
42DE
100
AcDbXrecord
280
     1
290
     1
  0
XRECORD
  5
42E1
102
{ACAD_REACTORS
330
42E0
102
}
330
42E0
100
AcDbXrecord
280
     1
290
     1
  0
ACDBDETAILVIEWSTYLE
  5
4241
102
{ACAD_XDICTIONARY
360
42EE
102
}
102
{ACAD_REACTORS
330
4240
102
}
330
4240
100
AcDbModelDocViewStyle
 70
     0
  3
Imperial24
290
     0
100
AcDbDetailViewStyle
 70
     0
 71
     0
 90
        3
 71
     1
340
11
 62
   256
 40
0.24
340
0
 62
   256
 40
0.24
300

 40
0.36
280
     3
 71
     2
340
16
 90
       25
 62
   256
 71
     3
340
11
 62
   256
 40
0.24
 90
        1
 40
0.75
 90
        1
300
%<\AcVar ViewType \f "%tc1">% %<\AcVar ViewDetailId>%\PSCALE %<\AcVar ViewScale \f "%sn">%
 71
     4
340
16
 90
       25
 62
   256
340
16
 90
       25
 62
   256
280
     0
  0
LAYOUT
  5
1E
102
{ACAD_REACTORS
330
1A
102
}
330
1A
100
AcDbPlotSettings
  1

  2
none_device
  4

  6

 40
0.0
 41
0.0
 42
0.0
 43
0.0
 44
0.0
 45
0.0
 46
0.0
 47
0.0
 48
0.0
 49
0.0
140
0.0
141
0.0
142
1.0
143
1.0
 70
   688
 72
     0
 73
     0
 74
     5
  7

 75
    16
147
1.0
 76
     0
 77
     2
 78
   300
148
0.0
149
0.0
100
AcDbLayout
  1
Layout1
 70
     1
 71
     1
 10
0.0
 20
0.0
 11
12.0
 21
9.0
 12
0.0
 22
0.0
 32
0.0
 14
1.000000000000000E+20
 24
1.000000000000000E+20
 34
1.000000000000000E+20
 15
-1.000000000000000E+20
 25
-1.000000000000000E+20
 35
-1.000000000000000E+20
146
0.0
 13
0.0
 23
0.0
 33
0.0
 16
1.0
 26
0.0
 36
0.0
 17
0.0
 27
1.0
 37
0.0
 76
     0
330
1B
  0
LAYOUT
  5
24
102
{ACAD_REACTORS
330
1A
102
}
330
1A
100
AcDbPlotSettings
  1

  2
none_device
  4

  6

 40
0.0
 41
0.0
 42
0.0
 43
0.0
 44
0.0
 45
0.0
 46
0.0
 47
0.0
 48
0.0
 49
0.0
140
0.0
141
0.0
142
1.0
143
1.0
 70
   688
 72
     0
 73
     0
 74
     5
  7

 75
    16
147
1.0
 76
     0
 77
     2
 78
   300
148
0.0
149
0.0
100
AcDbLayout
  1
Layout2
 70
     1
 71
     2
 10
0.0
 20
0.0
 11
0.0
 21
0.0
 12
0.0
 22
0.0
 32
0.0
 14
0.0
 24
0.0
 34
0.0
 15
0.0
 25
0.0
 35
0.0
146
0.0
 13
0.0
 23
0.0
 33
0.0
 16
1.0
 26
0.0
 36
0.0
 17
0.0
 27
1.0
 37
0.0
 76
     0
330
23
  0
LAYOUT
  5
22
102
{ACAD_REACTORS
330
1A
102
}
330
1A
100
AcDbPlotSettings
  1

  2
pdfFactory
  4
A4
  6

 40
6.349999999999998
 41
6.350000000000008
 42
6.350000000000018
 43
6.349999999999998
 44
210.0
 45
297.0
 46
-0.0000000000000082
 47
2.644949494949759
 48
1470.343086854253
 49
90.57469565813876
140
2663.355801320022
141
934.2051151732198
142
1.0
143
4.275876429371925
 70
  1716
 72
     1
 73
     1
 74
     4
  7
Monochrome.ctb
 75
     0
147
0.2338701822931042
 76
     0
 77
     2
 78
   300
148
0.0
149
0.0
100
AcDbLayout
  1
Model
 70
     1
 71
     0
 10
0.0
 20
0.0
 11
12.0
 21
9.0
 12
0.0
 22
0.0
 32
0.0
 14
133.3430868542532
 24
90.57469565813876
 34
0.0
 15
3984.355801320023
 25
934.2051151732198
 35
0.0
146
0.0
 13
0.0
 23
0.0
 33
0.0
 16
1.0
 26
0.0
 36
0.0
 17
0.0
 27
1.0
 37
0.0
 76
     0
330
1F
331
27
  0
MATERIAL
  5
3511
102
{ACAD_XDICTIONARY
360
41F0
102
}
102
{ACAD_REACTORS
330
350F
102
}
330
350F
100
AcDbMaterial
  1
ByBlock
  0
MATERIAL
  5
3510
102
{ACAD_XDICTIONARY
360
41EE
102
}
102
{ACAD_REACTORS
330
350F
102
}
330
350F
100
AcDbMaterial
  1
ByLayer
  0
MATERIAL
  5
3512
102
{ACAD_XDICTIONARY
360
41F2
102
}
102
{ACAD_REACTORS
330
350F
102
}
330
350F
100
AcDbMaterial
  1
Global
  0
MLEADERSTYLE
  5
423D
102
{ACAD_REACTORS
330
423C
102
}
330
423C
100
AcDbMLeaderStyle
179
     2
170
     2
171
     1
172
     0
 90
        2
 40
0.0
 41
0.0
173
     1
 91
-1056964608
340
14
 92
       -2
290
     1
 42
0.09
291
     1
 43
0.36
  3
Standard
 44
0.18
300

342
11
174
     1
178
     6
175
     1
176
     0
 93
-1056964608
 45
0.18
292
     0
297
     0
 46
0.18
 94
-1056964608
 47
1.0
 49
1.0
140
1.0
293
     1
141
0.0
294
     1
177
     0
142
1.0
295
     0
296
     0
143
0.125
271
     0
272
     9
273
     9
298
     0
  0
MLINESTYLE
  5
18
102
{ACAD_REACTORS
330
17
102
}
330
17
100
AcDbMlineStyle
  2
STANDARD
 70
     0
  3

 62
   256
 51
90.0
 52
90.0
 71
     2
 49
0.5
 62
   256
  6
BYLAYER
 49
-0.5
 62
   256
  6
BYLAYER
  0
ACDBPLACEHOLDER
  5
F
102
{ACAD_REACTORS
330
E
102
}
330
E
  0
SCALE
  5
422B
102
{ACAD_REACTORS
330
422A
102
}
330
422A
100
AcDbScale
 70
     0
300
1:1
140
1.0
141
1.0
290
     1
  0
SCALE
  5
422C
102
{ACAD_REACTORS
330
422A
102
}
330
422A
100
AcDbScale
 70
     0
300
1/128" = 1'-0"
140
0.0078125
141
12.0
290
     0
  0
SCALE
  5
422D
102
{ACAD_REACTORS
330
422A
102
}
330
422A
100
AcDbScale
 70
     0
300
1/64" = 1'-0"
140
0.015625
141
12.0
290
     0
  0
SCALE
  5
422E
102
{ACAD_REACTORS
330
422A
102
}
330
422A
100
AcDbScale
 70
     0
300
1/32" = 1'-0"
140
0.03125
141
12.0
290
     0
  0
SCALE
  5
422F
102
{ACAD_REACTORS
330
422A
102
}
330
422A
100
AcDbScale
 70
     0
300
1/16" = 1'-0"
140
0.0625
141
12.0
290
     0
  0
SCALE
  5
4230
102
{ACAD_REACTORS
330
422A
102
}
330
422A
100
AcDbScale
 70
     0
300
3/32" = 1'-0"
140
0.09375
141
12.0
290
     0
  0
SCALE
  5
4231
102
{ACAD_REACTORS
330
422A
102
}
330
422A
100
AcDbScale
 70
     0
300
1/8" = 1'-0"
140
0.125
141
12.0
290
     0
  0
SCALE
  5
4232
102
{ACAD_REACTORS
330
422A
102
}
330
422A
100
AcDbScale
 70
     0
300
3/16" = 1'-0"
140
0.1875
141
12.0
290
     0
  0
SCALE
  5
4233
102
{ACAD_REACTORS
330
422A
102
}
330
422A
100
AcDbScale
 70
     0
300
1/4" = 1'-0"
140
0.25
141
12.0
290
     0
  0
SCALE
  5
4234
102
{ACAD_REACTORS
330
422A
102
}
330
422A
100
AcDbScale
 70
     0
300
3/8" = 1'-0"
140
0.375
141
12.0
290
     0
  0
SCALE
  5
4235
102
{ACAD_REACTORS
330
422A
102
}
330
422A
100
AcDbScale
 70
     0
300
1/2" = 1'-0"
140
0.5
141
12.0
290
     0
  0
SCALE
  5
4236
102
{ACAD_REACTORS
330
422A
102
}
330
422A
100
AcDbScale
 70
     0
300
3/4" = 1'-0"
140
0.75
141
12.0
290
     0
  0
SCALE
  5
4237
102
{ACAD_REACTORS
330
422A
102
}
330
422A
100
AcDbScale
 70
     0
300
1" = 1'-0"
140
1.0
141
12.0
290
     0
  0
SCALE
  5
4238
102
{ACAD_REACTORS
330
422A
102
}
330
422A
100
AcDbScale
 70
     0
300
1-1/2" = 1'-0"
140
1.5
141
12.0
290
     0
  0
SCALE
  5
4239
102
{ACAD_REACTORS
330
422A
102
}
330
422A
100
AcDbScale
 70
     0
300
3" = 1'-0"
140
3.0
141
12.0
290
     0
  0
SCALE
  5
423A
102
{ACAD_REACTORS
330
422A
102
}
330
422A
100
AcDbScale
 70
     0
300
6" = 1'-0"
140
6.0
141
12.0
290
     0
  0
SCALE
  5
423B
102
{ACAD_REACTORS
330
422A
102
}
330
422A
100
AcDbScale
 70
     0
300
1'-0" = 1'-0"
140
12.0
141
12.0
290
     0
  0
ACDBSECTIONVIEWSTYLE
  5
423F
102
{ACAD_XDICTIONARY
360
42EC
102
}
102
{ACAD_REACTORS
330
423E
102
}
330
423E
100
AcDbModelDocViewStyle
 70
     0
  3
Imperial24
290
     0
100
AcDbSectionViewStyle
 70
     0
 71
     0
 90
       78
 71
     1
340
11
 62
   256
 40
0.24
340
0
340
0
 62
   256
 40
0.24
300
I, O, Q, S, X, Z
 40
0.48
 90
        3
 40
0.18
 90
        1
 71
     2
340
16
 90
       25
 62
   256
340
16
 90
       50
 62
   256
 40
0.24
 40
0.0
 40
0.24
 71
     3
340
11
 62
   256
 40
0.24
 90
        1
 40
0.75
 90
        1
300
%<\AcVar ViewType \f "%tc1">% %<\AcVar ViewSectionStartId>%-%<\AcVar ViewSectionEndId>%\PSCALE %<\AcVar ViewScale \f "%sn">%
 71
     4
 62
   256
 62
   257
300
ANSI31
 40
1.0
 90
        0
290
     0
290
     0
 90
        6
 40
0.0
 40
1.570796326794896
 40
0.2617993877991494
 40
1.308996938995747
 40
-0.2617993877991494
 40
1.832595714594046
  0
TABLESTYLE
  5
3514
102
{ACAD_XDICTIONARY
360
42EA
102
}
102
{ACAD_REACTORS
330
E9
102
}
330
E9
100
AcDbTableStyle
280
     0
  3
Standard
 70
     0
 71
     0
 40
0.06
 41
0.06
280
     0
281
     0
  7
Standard
140
0.18
170
     2
 62
     0
 63
     7
283
     0
 90
      512
 91
        0
  1

274
    -2
284
     1
 64
     0
275
    -2
285
     1
 65
     0
276
    -2
286
     1
 66
     0
277
    -2
287
     1
 67
     0
278
    -2
288
     1
 68
     0
279
    -2
289
     1
 69
     0
  7
Standard
140
0.25
170
     5
 62
     0
 63
     7
283
     0
 90
      512
 91
        0
  1

274
    -2
284
     1
 64
     0
275
    -2
285
     1
 65
     0
276
    -2
286
     1
 66
     0
277
    -2
287
     1
 67
     0
278
    -2
288
     1
 68
     0
279
    -2
289
     1
 69
     0
  7
Standard
140
0.18
170
     5
 62
     0
 63
     7
283
     0
 90
      512
 91
        0
  1

274
    -2
284
     1
 64
     0
275
    -2
285
     1
 65
     0
276
    -2
286
     1
 66
     0
277
    -2
287
     1
 67
     0
278
    -2
288
     1
 68
     0
279
    -2
289
     1
 69
     0
  0
VISUALSTYLE
  5
2D
102
{ACAD_REACTORS
330
28
102
}
330
28
100
AcDbVisualStyle
  2

 70
     4
177
     3
291
     0
 70
    58
 90
        0
176
     1
 90
        2
176
     1
 90
        0
176
     1
 90
        0
176
     1
 40
0.6
176
     1
 40
30.0
176
     1
 62
     7
176
     1
 90
        1
176
     1
 90
        4
176
     1
 62
     7
176
     1
 62
   257
176
     1
 90
        1
176
     1
 90
        1
176
     1
 40
1.0
176
     1
 90
        0
176
     1
 62
   257
176
     1
 40
1.0
176
     1
 90
        1
176
     1
 90
        6
176
     1
 90
        2
176
     1
 62
     7
176
     1
 90
        5
176
     1
 90
        0
176
     1
 90
        0
176
     1
290
     0
176
     1
 90
        1
176
     1
 40
0.0
176
     1
 90
        0
176
     1
290
     1
176
     1
290
     1
176
     1
290
     0
176
     1
290
     0
176
     1
290
     0
176
     1
290
     0
176
     1
290
     0
176
     1
290
     0
176
     1
290
     0
176
     1
 90
       50
176
     1
 40
0.0
176
     1
 40
1.0
176
     1
 90
        0
176
     1
 62
    18
420
        0
176
     1
 90
       50
176
     1
 90
        3
176
     1
 62
     5
420
      255
176
     1
290
     0
176
     1
 90
       50
176
     1
 90
       50
176
     1
 90
       50
176
     1
290
     0
176
     1
 90
       50
176
     1
 62
   256
176
     0
 40
1.0
176
     0
 90
        2
176
     1
  1
strokes_ogs.tif
176
     1
290
     0
176
     1
 40
1.0
176
     1
 40
1.0
176
     1
1001
ACAD
1000
AcDbSavedByObjectVersion
1070
     0
  0
VISUALSTYLE
  5
2F
102
{ACAD_REACTORS
330
28
102
}
330
28
100
AcDbVisualStyle
  2

 70
     6
177
     3
291
     0
 70
    58
 90
        1
176
     1
 90
        2
176
     1
 90
        2
176
     1
 90
        0
176
     1
 40
0.6
176
     1
 40
30.0
176
     1
 62
     7
176
     1
 90
        2
176
     1
 90
        2
176
     1
 62
     7
176
     1
 62
   257
176
     1
 90
        2
176
     1
 90
        1
176
     1
 40
40.0
176
     1
 90
        0
176
     1
 62
   257
176
     1
 40
1.0
176
     1
 90
        1
176
     1
 90
        6
176
     1
 90
        2
176
     1
 62
     7
176
     1
 90
        3
176
     1
 90
        0
176
     1
 90
        0
176
     1
290
     0
176
     1
 90
        1
176
     1
 40
0.0
176
     1
 90
        0
176
     1
290
     0
176
     1
290
     1
176
     1
290
     1
176
     1
290
     0
176
     1
290
     0
176
     1
290
     0
176
     1
290
     0
176
     1
290
     0
176
     1
290
     0
176
     1
 90
       50
176
     1
 40
0.0
176
     1
 40
1.0
176
     1
 90
        0
176
     1
 62
    18
420
        0
176
     1
 90
       50
176
     1
 90
        3
176
     1
 62
     5
420
      255
176
     1
290
     0
176
     1
 90
       50
176
     1
 90
       50
176
     1
 90
       50
176
     1
290
     0
176
     1
 90
       50
176
     1
 62
   256
176
     0
 40
1.0
176
     0
 90
        2
176
     1
  1
strokes_ogs.tif
176
     1
290
     0
176
     1
 40
1.0
176
     1
 40
1.0
176
     1
1001
ACAD
1000
AcDbSavedByObjectVersion
1070
     0
  0
VISUALSTYLE
  5
2E
102
{ACAD_REACTORS
330
28
102
}
330
28
100
AcDbVisualStyle
  2

 70
     5
177
     3
291
     0
 70
    58
 90
        0
176
     1
 90
        2
176
     1
 90
        0
176
     1
 90
        0
176
     1
 40
0.6
176
     1
 40
30.0
176
     1
 62
     7
176
     1
 90
        1
176
     1
 90
        4
176
     1
 62
     7
176
     1
 62
   257
176
     1
 90
        1
176
     1
 90
        1
176
     1
 40
1.0
176
     1
 90
        0
176
     1
 62
   257
176
     1
 40
1.0
176
     1
 90
        1
176
     1
 90
        6
176
     1
 90
        2
176
     1
 62
     7
176
     1
 90
        5
176
     1
 90
        0
176
     1
 90
        0
176
     1
290
     0
176
     1
 90
        1
176
     1
 40
0.0
176
     1
 90
        0
176
     1
290
     0
176
     1
290
     1
176
     1
290
     1
176
     1
290
     0
176
     1
290
     0
176
     1
290
     0
176
     1
290
     0
176
     1
290
     0
176
     1
290
     0
176
     1
 90
       50
176
     1
 40
0.0
176
     1
 40
1.0
176
     1
 90
        0
176
     1
 62
    18
420
        0
176
     1
 90
       50
176
     1
 90
        3
176
     1
 62
     5
420
      255
176
     1
290
     0
176
     1
 90
       50
176
     1
 90
       50
176
     1
 90
       50
176
     1
290
     0
176
     1
 90
       50
176
     1
 62
   256
176
     0
 40
1.0
176
     0
 90
        2
176
     1
  1
strokes_ogs.tif
176
     1
290
     0
176
     1
 40
1.0
176
     1
 40
1.0
176
     1
1001
ACAD
1000
AcDbSavedByObjectVersion
1070
     0
  0
VISUALSTYLE
  5
30
102
{ACAD_REACTORS
330
28
102
}
330
28
100
AcDbVisualStyle
  2

 70
     7
177
     3
291
     1
 70
    58
 90
        1
176
     1
 90
        0
176
     1
 90
        1
176
     1
 90
        0
176
     1
 40
0.6
176
     1
 40
30.0
176
     1
 62
     7
176
     1
 90
        0
176
     1
 90
        4
176
     1
 62
     7
176
     1
 62
   257
176
     1
 90
        1
176
     1
 90
        1
176
     1
 40
1.0
176
     1
 90
        8
176
     1
 62
     7
176
     1
 40
1.0
176
     1
 90
        1
176
     1
 90
        6
176
     1
 90
        2
176
     1
 62
     7
176
     1
 90
        5
176
     1
 90
        0
176
     1
 90
        0
176
     1
290
     0
176
     1
 90
        1
176
     1
 40
0.0
176
     1
 90
        0
176
     1
290
     0
176
     1
290
     1
176
     1
290
     1
176
     1
290
     0
176
     1
290
     0
176
     1
290
     0
176
     1
290
     0
176
     1
290
     0
176
     1
290
     0
176
     1
 90
       50
176
     1
 40
0.0
176
     1
 40
1.0
176
     1
 90
        0
176
     1
 62
    18
420
        0
176
     1
 90
       50
176
     1
 90
        3
176
     1
 62
     5
420
      255
176
     1
290
     0
176
     1
 90
       50
176
     1
 90
       50
176
     1
 90
       50
176
     1
290
     0
176
     1
 90
       50
176
     1
 62
   256
176
     0
 40
1.0
176
     0
 90
        2
176
     1
  1
strokes_ogs.tif
176
     1
290
     0
176
     1
 40
1.0
176
     1
 40
1.0
176
     1
1001
ACAD
1000
AcDbSavedByObjectVersion
1070
     0
  0
VISUALSTYLE
  5
34
102
{ACAD_REACTORS
330
28
102
}
330
28
100
AcDbVisualStyle
  2

 70
    12
177
     3
291
     1
 70
    58
 90
        2
176
     1
 90
        2
176
     1
 90
        0
176
     1
 90
        0
176
     1
 40
0.6
176
     1
 40
30.0
176
     1
 62
     7
176
     1
 90
        1
176
     1
 90
        4
176
     1
 62
     7
176
     1
 62
   257
176
     1
 90
        1
176
     1
 90
        1
176
     1
 40
1.0
176
     1
 90
        8
176
     1
 62
     7
176
     1
 40
1.0
176
     1
 90
        1
176
     1
 90
        6
176
     1
 90
        2
176
     1
 62
     7
176
     1
 90
        5
176
     1
 90
        0
176
     1
 90
        0
176
     1
290
     0
176
     1
 90
        1
176
     1
 40
50.0
176
     1
 90
        0
176
     1
290
     0
176
     1
290
     1
176
     1
290
     1
176
     1
290
     0
176
     1
290
     0
176
     1
290
     0
176
     1
290
     0
176
     1
290
     0
176
     1
290
     0
176
     1
 90
       50
176
     1
 40
0.0
176
     1
 40
1.0
176
     1
 90
        0
176
     1
 62
    18
420
        0
176
     1
 90
       50
176
     1
 90
        3
176
     1
 62
     5
420
      255
176
     1
290
     0
176
     1
 90
       50
176
     1
 90
       50
176
     1
 90
       50
176
     1
290
     0
176
     1
 90
       50
176
     1
 62
   256
176
     0
 40
1.0
176
     0
 90
        2
176
     1
  1
strokes_ogs.tif
176
     1
290
     0
176
     1
 40
1.0
176
     1
 40
1.0
176
     1
1001
ACAD
1000
AcDbSavedByObjectVersion
1070
     0
  0
VISUALSTYLE
  5
38
102
{ACAD_REACTORS
330
28
102
}
330
28
100
AcDbVisualStyle
  2

 70
    16
177
     3
291
     1
 70
    58
 90
        2
176
     1
 90
        2
176
     1
 90
        3
176
     1
 90
        0
176
     1
 40
0.6
176
     1
 40
30.0
176
     1
 62
     8
176
     1
 90
        1
176
     1
 90
        4
176
     1
 62
     7
176
     1
 62
   257
176
     1
 90
        1
176
     1
 90
        1
176
     1
 40
1.0
176
     1
 90
        8
176
     1
 62
     8
176
     1
 40
1.0
176
     1
 90
        1
176
     1
 90
        6
176
     1
 90
        2
176
     1
 62
     7
176
     1
 90
        5
176
     1
 90
        0
176
     1
 90
        0
176
     1
290
     0
176
     1
 90
        1
176
     1
 40
0.0
176
     1
 90
        0
176
     1
290
     0
176
     1
290
     1
176
     1
290
     1
176
     1
290
     0
176
     1
290
     0
176
     1
290
     0
176
     1
290
     0
176
     1
290
     0
176
     1
290
     0
176
     1
 90
       50
176
     1
 40
0.0
176
     1
 40
1.0
176
     1
 90
        0
176
     1
 62
    18
420
        0
176
     1
 90
       50
176
     1
 90
        3
176
     1
 62
     5
420
      255
176
     1
290
     0
176
     1
 90
       50
176
     1
 90
       50
176
     1
 90
       50
176
     1
290
     0
176
     1
 90
       50
176
     1
 62
   256
176
     0
 40
1.0
176
     0
 90
        2
176
     1
  1
strokes_ogs.tif
176
     1
290
     0
176
     1
 40
1.0
176
     1
 40
1.0
176
     1
1001
ACAD
1000
AcDbSavedByObjectVersion
1070
     0
  0
VISUALSTYLE
  5
32
102
{ACAD_REACTORS
330
28
102
}
330
28
100
AcDbVisualStyle
  2

 70
     9
177
     3
291
     0
 70
    58
 90
        3
176
     1
 90
        2
176
     1
 90
        0
176
     1
 90
        0
176
     1
 40
0.6
176
     1
 40
30.0
176
     1
 62
     7
176
     1
 90
        2
176
     1
 90
        2
176
     1
 62
     7
176
     1
 62
   257
176
     1
 90
        1
176
     1
 90
        1
176
     1
 40
40.0
176
     1
 90
        8
176
     1
 62
     7
176
     1
 40
1.0
176
     1
 90
        1
176
     1
 90
        6
176
     1
 90
        2
176
     1
 62
     7
176
     1
 90
        3
176
     1
 90
        0
176
     1
 90
        0
176
     1
290
     0
176
     1
 90
        1
176
     1
 40
0.0
176
     1
 90
        0
176
     1
290
     0
176
     1
290
     1
176
     1
290
     1
176
     1
290
     0
176
     1
290
     0
176
     1
290
     0
176
     1
290
     0
176
     1
290
     0
176
     1
290
     0
176
     1
 90
       50
176
     1
 40
0.0
176
     1
 40
1.0
176
     1
 90
        0
176
     1
 62
    18
420
        0
176
     1
 90
       50
176
     1
 90
        3
176
     1
 62
     5
420
      255
176
     1
290
     0
176
     1
 90
       50
176
     1
 90
       50
176
     1
 90
       50
176
     1
290
     0
176
     1
 90
       50
176
     1
 62
   256
176
     0
 40
1.0
176
     0
 90
        2
176
     1
  1
strokes_ogs.tif
176
     1
290
     0
176
     1
 40
1.0
176
     1
 40
1.0
176
     1
1001
ACAD
1000
AcDbSavedByObjectVersion
1070
     0
  0
VISUALSTYLE
  5
33
102
{ACAD_REACTORS
330
28
102
}
330
28
100
AcDbVisualStyle
  2

 70
    11
177
     3
291
     1
 70
    58
 90
        2
176
     1
 90
        2
176
     1
 90
        0
176
     1
 90
        0
176
     1
 40
0.6
176
     1
 40
30.0
176
     1
 62
     7
176
     1
 90
        1
176
     1
 90
        4
176
     1
 62
     7
176
     1
 62
   257
176
     1
 90
        1
176
     1
 90
        1
176
     1
 40
1.0
176
     1
 90
        8
176
     1
 62
     7
176
     1
 40
1.0
176
     1
 90
        1
176
     1
 90
        6
176
     1
 90
        2
176
     1
 62
     7
176
     1
 90
        5
176
     1
 90
        0
176
     1
 90
        0
176
     1
290
     0
176
     1
 90
        1
176
     1
 40
-50.0
176
     1
 90
        0
176
     1
290
     0
176
     1
290
     1
176
     1
290
     1
176
     1
290
     0
176
     1
290
     0
176
     1
290
     0
176
     1
290
     0
176
     1
290
     0
176
     1
290
     0
176
     1
 90
       50
176
     1
 40
0.0
176
     1
 40
1.0
176
     1
 90
        0
176
     1
 62
    18
420
        0
176
     1
 90
       50
176
     1
 90
        3
176
     1
 62
     5
420
      255
176
     1
290
     0
176
     1
 90
       50
176
     1
 90
       50
176
     1
 90
       50
176
     1
290
     0
176
     1
 90
       50
176
     1
 62
   256
176
     0
 40
1.0
176
     0
 90
        2
176
     1
  1
strokes_ogs.tif
176
     1
290
     0
176
     1
 40
1.0
176
     1
 40
1.0
176
     1
1001
ACAD
1000
AcDbSavedByObjectVersion
1070
     0
  0
VISUALSTYLE
  5
4229
102
{ACAD_REACTORS
330
28
102
}
330
28
100
AcDbVisualStyle
  2
EdgeColorOff
 70
    22
177
     3
291
     1
 70
    58
 90
        2
176
     0
 90
        2
176
     0
 90
        0
176
     0
 90
        0
176
     0
 40
0.6
176
     0
 40
30.0
176
     0
 62
     7
420
 16777215
176
     0
 90
        1
176
     0
 90
        4
176
     0
 62
     7
176
     0
 62
   257
176
     0
 90
        1
176
     0
 90
        1
176
     0
 40
1.0
176
     0
 90
        8
176
     2
 62
     7
176
     0
 40
1.0
176
     0
 90
        1
176
     0
 90
        6
176
     0
 90
        2
176
     0
 62
     7
176
     0
 90
        5
176
     0
 90
        0
176
     0
 90
        0
176
     0
290
     0
176
     0
 90
        1
176
     0
 40
0.0
176
     0
 90
        0
176
     0
290
     0
176
     1
290
     1
176
     1
290
     1
176
     1
290
     0
176
     1
290
     0
176
     1
290
     0
176
     1
290
     0
176
     1
290
     0
176
     1
290
     0
176
     1
 90
       50
176
     0
 40
0.0
176
     0
 40
1.0
176
     0
 90
        0
176
     0
 62
    18
420
        0
176
     0
 90
       50
176
     0
 90
        3
176
     0
 62
     5
420
      255
176
     0
290
     0
176
     1
 90
       50
176
     0
 90
       50
176
     0
 90
       50
176
     0
290
     0
176
     1
 90
       50
176
     0
 62
   256
176
     0
 40
1.0
176
     0
 90
        2
176
     0
  1
strokes_ogs.tif
176
     0
290
     0
176
     1
 40
1.0
176
     0
 40
1.0
176
     0
  0
VISUALSTYLE
  5
37
102
{ACAD_REACTORS
330
28
102
}
330
28
100
AcDbVisualStyle
  2

 70
    15
177
     3
291
     1
 70
    58
 90
        2
176
     1
 90
        2
176
     1
 90
        0
176
     1
 90
        0
176
     1
 40
0.6
176
     1
 40
30.0
176
     1
 62
     7
176
     1
 90
        1
176
     1
 90
        4
176
     1
 62
     7
176
     1
 62
   257
176
     1
 90
        1
176
     1
 90
        1
176
     1
 40
1.0
176
     1
 90
        8
176
     1
 62
     7
176
     1
 40
1.0
176
     1
 90
        1
176
     1
 90
        6
176
     1
 90
        2
176
     1
 62
     7
176
     1
 90
        5
176
     1
 90
        0
176
     1
 90
        0
176
     1
290
     0
176
     1
 90
        1
176
     1
 40
0.0
176
     1
 90
        0
176
     1
290
     0
176
     1
290
     1
176
     1
290
     1
176
     1
290
     0
176
     1
290
     0
176
     1
290
     0
176
     1
290
     0
176
     1
290
     0
176
     1
290
     0
176
     1
 90
       50
176
     1
 40
0.0
176
     1
 40
1.0
176
     1
 90
        0
176
     1
 62
    18
420
        0
176
     1
 90
       50
176
     1
 90
        3
176
     1
 62
     5
420
      255
176
     1
290
     0
176
     1
 90
       50
176
     1
 90
       50
176
     1
 90
       50
176
     1
290
     0
176
     1
 90
       50
176
     1
 62
   256
176
     0
 40
1.0
176
     0
 90
        2
176
     1
  1
strokes_ogs.tif
176
     1
290
     0
176
     1
 40
1.0
176
     1
 40
1.0
176
     1
1001
ACAD
1000
AcDbSavedByObjectVersion
1070
     0
  0
VISUALSTYLE
  5
29
102
{ACAD_REACTORS
330
28
102
}
330
28
100
AcDbVisualStyle
  2

 70
     0
177
     3
291
     1
 70
    58
 90
        2
176
     1
 90
        1
176
     1
 90
        1
176
     1
 90
        2
176
     1
 40
0.6
176
     1
 40
30.0
176
     1
 62
     7
176
     1
 90
        0
176
     1
 90
        4
176
     1
 62
     7
176
     1
 62
   257
176
     1
 90
        1
176
     1
 90
        1
176
     1
 40
1.0
176
     1
 90
        8
176
     1
 62
     7
176
     1
 40
1.0
176
     1
 90
        1
176
     1
 90
        6
176
     1
 90
        2
176
     1
 62
     7
176
     1
 90
        5
176
     1
 90
        0
176
     1
 90
        0
176
     1
290
     0
176
     1
 90
       13
176
     1
 40
0.0
176
     1
 90
        0
176
     1
290
     0
176
     1
290
     1
176
     1
290
     1
176
     1
290
     0
176
     1
290
     0
176
     1
290
     0
176
     1
290
     0
176
     1
290
     0
176
     1
290
     0
176
     1
 90
       50
176
     1
 40
0.0
176
     1
 40
1.0
176
     1
 90
        0
176
     1
 62
    18
420
        0
176
     1
 90
       50
176
     1
 90
        3
176
     1
 62
     5
420
      255
176
     1
290
     0
176
     1
 90
       50
176
     1
 90
       50
176
     1
 90
       50
176
     1
290
     0
176
     1
 90
       50
176
     1
 62
   256
176
     0
 40
1.0
176
     0
 90
        2
176
     1
  1
strokes_ogs.tif
176
     1
290
     0
176
     1
 40
1.0
176
     1
 40
1.0
176
     1
1001
ACAD
1000
AcDbSavedByObjectVersion
1070
     0
  0
VISUALSTYLE
  5
2A
102
{ACAD_REACTORS
330
28
102
}
330
28
100
AcDbVisualStyle
  2

 70
     1
177
     3
291
     1
 70
    58
 90
        2
176
     1
 90
        1
176
     1
 90
        1
176
     1
 90
        2
176
     1
 40
0.6
176
     1
 40
30.0
176
     1
 62
     7
176
     1
 90
        1
176
     1
 90
        4
176
     1
 62
     7
176
     1
 62
   257
176
     1
 90
        1
176
     1
 90
        1
176
     1
 40
1.0
176
     1
 90
        0
176
     1
 62
   257
176
     1
 40
1.0
176
     1
 90
        1
176
     1
 90
        6
176
     1
 90
        2
176
     1
 62
     7
176
     1
 90
        5
176
     1
 90
        0
176
     1
 90
        0
176
     1
290
     0
176
     1
 90
       13
176
     1
 40
0.0
176
     1
 90
        0
176
     1
290
     0
176
     1
290
     1
176
     1
290
     1
176
     1
290
     0
176
     1
290
     0
176
     1
290
     0
176
     1
290
     0
176
     1
290
     0
176
     1
290
     0
176
     1
 90
       50
176
     1
 40
0.0
176
     1
 40
1.0
176
     1
 90
        0
176
     1
 62
    18
420
        0
176
     1
 90
       50
176
     1
 90
        3
176
     1
 62
     5
420
      255
176
     1
290
     0
176
     1
 90
       50
176
     1
 90
       50
176
     1
 90
       50
176
     1
290
     0
176
     1
 90
       50
176
     1
 62
   256
176
     0
 40
1.0
176
     0
 90
        2
176
     1
  1
strokes_ogs.tif
176
     1
290
     0
176
     1
 40
1.0
176
     1
 40
1.0
176
     1
1001
ACAD
1000
AcDbSavedByObjectVersion
1070
     0
  0
VISUALSTYLE
  5
2B
102
{ACAD_REACTORS
330
28
102
}
330
28
100
AcDbVisualStyle
  2

 70
     2
177
     3
291
     1
 70
    58
 90
        2
176
     1
 90
        2
176
     1
 90
        1
176
     1
 90
        2
176
     1
 40
0.6
176
     1
 40
30.0
176
     1
 62
     7
176
     1
 90
        0
176
     1
 90
        4
176
     1
 62
     7
176
     1
 62
   257
176
     1
 90
        1
176
     1
 90
        1
176
     1
 40
1.0
176
     1
 90
        0
176
     1
 62
     7
176
     1
 40
1.0
176
     1
 90
        1
176
     1
 90
        6
176
     1
 90
        2
176
     1
 62
     7
176
     1
 90
        5
176
     1
 90
        0
176
     1
 90
        0
176
     1
290
     0
176
     1
 90
       13
176
     1
 40
0.0
176
     1
 90
        0
176
     1
290
     0
176
     1
290
     1
176
     1
290
     1
176
     1
290
     0
176
     1
290
     0
176
     1
290
     0
176
     1
290
     0
176
     1
290
     0
176
     1
290
     0
176
     1
 90
       50
176
     1
 40
0.0
176
     1
 40
1.0
176
     1
 90
        0
176
     1
 62
    18
420
        0
176
     1
 90
       50
176
     1
 90
        3
176
     1
 62
     5
420
      255
176
     1
290
     0
176
     1
 90
       50
176
     1
 90
       50
176
     1
 90
       50
176
     1
290
     0
176
     1
 90
       50
176
     1
 62
   256
176
     0
 40
1.0
176
     0
 90
        2
176
     1
  1
strokes_ogs.tif
176
     1
290
     0
176
     1
 40
1.0
176
     1
 40
1.0
176
     1
1001
ACAD
1000
AcDbSavedByObjectVersion
1070
     0
  0
VISUALSTYLE
  5
2C
102
{ACAD_REACTORS
330
28
102
}
330
28
100
AcDbVisualStyle
  2

 70
     3
177
     3
291
     1
 70
    58
 90
        2
176
     1
 90
        2
176
     1
 90
        1
176
     1
 90
        2
176
     1
 40
0.6
176
     1
 40
30.0
176
     1
 62
     7
176
     1
 90
        1
176
     1
 90
        4
176
     1
 62
     7
176
     1
 62
   257
176
     1
 90
        1
176
     1
 90
        1
176
     1
 40
1.0
176
     1
 90
        0
176
     1
 62
   257
176
     1
 40
1.0
176
     1
 90
        1
176
     1
 90
        6
176
     1
 90
        2
176
     1
 62
     7
176
     1
 90
        5
176
     1
 90
        0
176
     1
 90
        0
176
     1
290
     0
176
     1
 90
       13
176
     1
 40
0.0
176
     1
 90
        0
176
     1
290
     0
176
     1
290
     1
176
     1
290
     1
176
     1
290
     0
176
     1
290
     0
176
     1
290
     0
176
     1
290
     0
176
     1
290
     0
176
     1
290
     0
176
     1
 90
       50
176
     1
 40
0.0
176
     1
 40
1.0
176
     1
 90
        0
176
     1
 62
    18
420
        0
176
     1
 90
       50
176
     1
 90
        3
176
     1
 62
     5
420
      255
176
     1
290
     0
176
     1
 90
       50
176
     1
 90
       50
176
     1
 90
       50
176
     1
290
     0
176
     1
 90
       50
176
     1
 62
   256
176
     0
 40
1.0
176
     0
 90
        2
176
     1
  1
strokes_ogs.tif
176
     1
290
     0
176
     1
 40
1.0
176
     1
 40
1.0
176
     1
1001
ACAD
1000
AcDbSavedByObjectVersion
1070
     0
  0
VISUALSTYLE
  5
4221
102
{ACAD_REACTORS
330
28
102
}
330
28
100
AcDbVisualStyle
  2
Hidden
 70
     6
177
     3
291
     0
 70
    58
 90
        1
176
     1
 90
        2
176
     1
 90
        2
176
     1
 90
        0
176
     1
 40
0.6
176
     1
 40
30.0
176
     1
 62
     7
420
 16777215
176
     1
 90
        2
176
     1
 90
        2
176
     1
 62
     7
176
     1
 62
   257
176
     1
 90
        2
176
     1
 90
        1
176
     1
 40
40.0
176
     1
 90
        0
176
     1
 62
   257
176
     1
 40
1.0
176
     1
 90
        1
176
     1
 90
        6
176
     1
 90
        2
176
     1
 62
     7
176
     1
 90
        3
176
     1
 90
        0
176
     1
 90
        0
176
     1
290
     0
176
     1
 90
        1
176
     1
 40
0.0
176
     1
 90
        0
176
     1
290
     0
176
     1
290
     1
176
     1
290
     1
176
     1
290
     0
176
     1
290
     0
176
     1
290
     0
176
     1
290
     0
176
     1
290
     0
176
     1
290
     0
176
     1
 90
       50
176
     1
 40
0.0
176
     1
 40
1.0
176
     1
 90
        0
176
     1
 62
    18
420
        0
176
     1
 90
       50
176
     1
 90
        3
176
     1
 62
     5
420
      255
176
     1
290
     0
176
     1
 90
       50
176
     1
 90
       50
176
     1
 90
       50
176
     1
290
     0
176
     1
 90
       50
176
     1
 62
   256
176
     0
 40
1.0
176
     0
 90
        2
176
     1
  1
strokes_ogs.tif
176
     1
290
     0
176
     1
 40
1.0
176
     1
 40
1.0
176
     1
  0
VISUALSTYLE
  5
4227
102
{ACAD_REACTORS
330
28
102
}
330
28
100
AcDbVisualStyle
  2
JitterOff
 70
    20
177
     3
291
     1
 70
    58
 90
        2
176
     0
 90
        2
176
     0
 90
        0
176
     0
 90
        0
176
     0
 40
0.6
176
     0
 40
30.0
176
     0
 62
     7
420
 16777215
176
     0
 90
        1
176
     0
 90
        4
176
     0
 62
     7
176
     0
 62
   257
176
     0
 90
        1
176
     0
 90
        1
176
     0
 40
1.0
176
     0
 90
       10
176
     2
 62
     7
176
     0
 40
1.0
176
     0
 90
        1
176
     0
 90
        6
176
     0
 90
        2
176
     0
 62
     7
176
     0
 90
        5
176
     0
 90
        0
176
     0
 90
        0
176
     0
290
     0
176
     0
 90
        1
176
     0
 40
0.0
176
     0
 90
        0
176
     0
290
     0
176
     1
290
     1
176
     1
290
     1
176
     1
290
     0
176
     1
290
     0
176
     1
290
     0
176
     1
290
     0
176
     1
290
     0
176
     1
290
     0
176
     1
 90
       50
176
     0
 40
0.0
176
     0
 40
1.0
176
     0
 90
        0
176
     0
 62
    18
420
        0
176
     0
 90
       50
176
     0
 90
        3
176
     0
 62
     5
420
      255
176
     0
290
     0
176
     1
 90
       50
176
     0
 90
       50
176
     0
 90
       50
176
     0
290
     0
176
     1
 90
       50
176
     0
 62
   256
176
     0
 40
1.0
176
     0
 90
        2
176
     0
  1
strokes_ogs.tif
176
     0
290
     0
176
     1
 40
1.0
176
     0
 40
1.0
176
     0
  0
VISUALSTYLE
  5
36
102
{ACAD_REACTORS
330
28
102
}
330
28
100
AcDbVisualStyle
  2

 70
    14
177
     3
291
     1
 70
    58
 90
        2
176
     1
 90
        2
176
     1
 90
        0
176
     1
 90
        0
176
     1
 40
0.6
176
     1
 40
30.0
176
     1
 62
     7
176
     1
 90
        1
176
     1
 90
        4
176
     1
 62
     7
176
     1
 62
   257
176
     1
 90
        7
176
     1
 90
        7
176
     1
 40
1.0
176
     1
 90
        8
176
     1
 62
     7
176
     1
 40
1.0
176
     1
 90
        1
176
     1
 90
        6
176
     1
 90
        2
176
     1
 62
     7
176
     1
 90
        5
176
     1
 90
        0
176
     1
 90
        0
176
     1
290
     0
176
     1
 90
        1
176
     1
 40
0.0
176
     1
 90
        0
176
     1
290
     0
176
     1
290
     1
176
     1
290
     1
176
     1
290
     0
176
     1
290
     0
176
     1
290
     0
176
     1
290
     0
176
     1
290
     0
176
     1
290
     0
176
     1
 90
       50
176
     1
 40
0.0
176
     1
 40
1.0
176
     1
 90
        0
176
     1
 62
    18
420
        0
176
     1
 90
       50
176
     1
 90
        3
176
     1
 62
     5
420
      255
176
     1
290
     0
176
     1
 90
       50
176
     1
 90
       50
176
     1
 90
       50
176
     1
290
     0
176
     1
 90
       50
176
     1
 62
   256
176
     0
 40
1.0
176
     0
 90
        2
176
     1
  1
strokes_ogs.tif
176
     1
290
     0
176
     1
 40
1.0
176
     1
 40
1.0
176
     1
1001
ACAD
1000
AcDbSavedByObjectVersion
1070
     0
  0
VISUALSTYLE
  5
4228
102
{ACAD_REACTORS
330
28
102
}
330
28
100
AcDbVisualStyle
  2
OverhangOff
 70
    21
177
     3
291
     1
 70
    58
 90
        2
176
     0
 90
        2
176
     0
 90
        0
176
     0
 90
        0
176
     0
 40
0.6
176
     0
 40
30.0
176
     0
 62
     7
420
 16777215
176
     0
 90
        1
176
     0
 90
        4
176
     0
 62
     7
176
     0
 62
   257
176
     0
 90
        1
176
     0
 90
        1
176
     0
 40
1.0
176
     0
 90
        9
176
     2
 62
     7
176
     0
 40
1.0
176
     0
 90
        1
176
     0
 90
        6
176
     0
 90
        2
176
     0
 62
     7
176
     0
 90
        5
176
     0
 90
        0
176
     0
 90
        0
176
     0
290
     0
176
     0
 90
        1
176
     0
 40
0.0
176
     0
 90
        0
176
     0
290
     0
176
     1
290
     1
176
     1
290
     1
176
     1
290
     0
176
     1
290
     0
176
     1
290
     0
176
     1
290
     0
176
     1
290
     0
176
     1
290
     0
176
     1
 90
       50
176
     0
 40
0.0
176
     0
 40
1.0
176
     0
 90
        0
176
     0
 62
    18
420
        0
176
     0
 90
       50
176
     0
 90
        3
176
     0
 62
     5
420
      255
176
     0
290
     0
176
     1
 90
       50
176
     0
 90
       50
176
     0
 90
       50
176
     0
290
     0
176
     1
 90
       50
176
     0
 62
   256
176
     0
 40
1.0
176
     0
 90
        2
176
     0
  1
strokes_ogs.tif
176
     0
290
     0
176
     1
 40
1.0
176
     0
 40
1.0
176
     0
  0
VISUALSTYLE
  5
31
102
{ACAD_REACTORS
330
28
102
}
330
28
100
AcDbVisualStyle
  2

 70
     8
177
     3
291
     0
 70
    58
 90
        2
176
     1
 90
        2
176
     1
 90
        0
176
     1
 90
        0
176
     1
 40
0.6
176
     1
 40
30.0
176
     1
 62
     7
176
     1
 90
        1
176
     1
 90
        0
176
     1
 62
     7
176
     1
 62
   257
176
     1
 90
        1
176
     1
 90
        1
176
     1
 40
1.0
176
     1
 90
        8
176
     1
 62
     8
176
     1
 40
1.0
176
     1
 90
        1
176
     1
 90
        6
176
     1
 90
        2
176
     1
 62
     7
176
     1
 90
        5
176
     1
 90
        0
176
     1
 90
        0
176
     1
290
     0
176
     1
 90
       13
176
     1
 40
0.0
176
     1
 90
        0
176
     1
290
     0
176
     1
290
     1
176
     1
290
     1
176
     1
290
     0
176
     1
290
     0
176
     1
290
     0
176
     1
290
     0
176
     1
290
     0
176
     1
290
     0
176
     1
 90
       50
176
     1
 40
0.0
176
     1
 40
1.0
176
     1
 90
        0
176
     1
 62
    18
420
        0
176
     1
 90
       50
176
     1
 90
        3
176
     1
 62
     5
420
      255
176
     1
290
     0
176
     1
 90
       50
176
     1
 90
       50
176
     1
 90
       50
176
     1
290
     0
176
     1
 90
       50
176
     1
 62
   256
176
     0
 40
1.0
176
     0
 90
        2
176
     1
  1
strokes_ogs.tif
176
     1
290
     0
176
     1
 40
1.0
176
     1
 40
1.0
176
     1
1001
ACAD
1000
AcDbSavedByObjectVersion
1070
     0
  0
VISUALSTYLE
  5
4226
102
{ACAD_REACTORS
330
28
102
}
330
28
100
AcDbVisualStyle
  2
Shaded
 70
    27
177
     3
291
     0
 70
    58
 90
        2
176
     1
 90
        2
176
     1
 90
        1
176
     1
 90
        2
176
     1
 40
0.6
176
     1
 40
30.0
176
     1
 62
     7
420
 16777215
176
     1
 90
        0
176
     1
 90
        4
176
     1
 62
     7
176
     1
 62
   257
176
     1
 90
        1
176
     1
 90
        1
176
     1
 40
1.0
176
     1
 90
        8
176
     1
 62
   257
176
     1
 40
1.0
176
     1
 90
        1
176
     1
 90
        6
176
     1
 90
        2
176
     1
 62
     8
420
  7895160
176
     1
 90
        3
176
     1
 90
        0
176
     1
 90
        0
176
     1
290
     0
176
     1
 90
        5
176
     1
 40
0.0
176
     1
 90
        0
176
     1
290
     0
176
     1
290
     1
176
     1
290
     1
176
     1
290
     0
176
     1
290
     0
176
     1
290
     0
176
     1
290
     0
176
     1
290
     0
176
     1
290
     0
176
     1
 90
       50
176
     1
 40
0.0
176
     1
 40
1.0
176
     1
 90
        0
176
     1
 62
    18
420
        0
176
     1
 90
       50
176
     1
 90
        3
176
     1
 62
     5
420
      255
176
     1
290
     0
176
     1
 90
       50
176
     1
 90
       50
176
     1
 90
       50
176
     1
290
     0
176
     1
 90
       50
176
     1
 62
   256
176
     0
 40
1.0
176
     0
 90
        2
176
     1
  1
strokes_ogs.tif
176
     1
290
     0
176
     1
 40
1.0
176
     1
 40
1.0
176
     1
  0
VISUALSTYLE
  5
4225
102
{ACAD_REACTORS
330
28
102
}
330
28
100
AcDbVisualStyle
  2
Shaded with edges
 70
    26
177
     3
291
     0
 70
    58
 90
        2
176
     1
 90
        2
176
     1
 90
        1
176
     1
 90
        2
176
     1
 40
0.6
176
     1
 40
30.0
176
     1
 62
     7
420
 16777215
176
     1
 90
        1
176
     1
 90
        2
176
     1
 62
     7
176
     1
 62
   257
176
     1
 90
        2
176
     1
 90
        1
176
     1
 40
1.0
176
     1
 90
        8
176
     1
 62
   257
176
     1
 40
1.0
176
     1
 90
        1
176
     1
 90
        6
176
     1
 90
        2
176
     1
 62
     7
176
     1
 90
        3
176
     1
 90
        0
176
     1
 90
        0
176
     1
290
     0
176
     1
 90
        5
176
     1
 40
0.0
176
     1
 90
        0
176
     1
290
     0
176
     1
290
     1
176
     1
290
     1
176
     1
290
     0
176
     1
290
     0
176
     1
290
     0
176
     1
290
     0
176
     1
290
     0
176
     1
290
     0
176
     1
 90
       50
176
     1
 40
0.0
176
     1
 40
1.0
176
     1
 90
        0
176
     1
 62
    18
420
        0
176
     1
 90
       50
176
     1
 90
        3
176
     1
 62
     5
420
      255
176
     1
290
     0
176
     1
 90
       50
176
     1
 90
       50
176
     1
 90
       50
176
     1
290
     0
176
     1
 90
       50
176
     1
 62
   256
176
     0
 40
1.0
176
     0
 90
        2
176
     1
  1
strokes_ogs.tif
176
     1
290
     0
176
     1
 40
1.0
176
     1
 40
1.0
176
     1
  0
VISUALSTYLE
  5
4222
102
{ACAD_REACTORS
330
28
102
}
330
28
100
AcDbVisualStyle
  2
Shades of Gray
 70
    23
177
     3
291
     0
 70
    58
 90
        2
176
     1
 90
        2
176
     1
 90
        3
176
     1
 90
        0
176
     1
 40
0.6
176
     1
 40
30.0
176
     1
 62
     7
420
 16777215
176
     1
 90
        2
176
     1
 90
        2
176
     1
 62
     7
176
     1
 62
     7
176
     1
 90
        1
176
     1
 90
        1
176
     1
 40
40.0
176
     1
 90
        8
176
     1
 62
     7
176
     1
 40
1.0
176
     1
 90
        1
176
     1
 90
        6
176
     1
 90
        2
176
     1
 62
     7
176
     1
 90
        3
176
     1
 90
        0
176
     1
 90
        0
176
     1
290
     0
176
     1
 90
        1
176
     1
 40
0.0
176
     1
 90
        0
176
     1
290
     0
176
     1
290
     1
176
     1
290
     1
176
     1
290
     0
176
     1
290
     0
176
     1
290
     0
176
     1
290
     0
176
     1
290
     0
176
     1
290
     0
176
     1
 90
       50
176
     1
 40
0.0
176
     1
 40
1.0
176
     1
 90
        0
176
     1
 62
    18
420
        0
176
     1
 90
       50
176
     1
 90
        3
176
     1
 62
     5
420
      255
176
     1
290
     0
176
     1
 90
       50
176
     1
 90
       50
176
     1
 90
       50
176
     1
290
     0
176
     1
 90
       50
176
     1
 62
   256
176
     0
 40
1.0
176
     0
 90
        2
176
     1
  1
strokes_ogs.tif
176
     1
290
     0
176
     1
 40
1.0
176
     1
 40
1.0
176
     1
  0
VISUALSTYLE
  5
4223
102
{ACAD_REACTORS
330
28
102
}
330
28
100
AcDbVisualStyle
  2
Sketchy
 70
    24
177
     3
291
     0
 70
    58
 90
        1
176
     1
 90
        2
176
     1
 90
        2
176
     1
 90
        0
176
     1
 40
0.6
176
     1
 40
30.0
176
     1
 62
     7
420
 16777215
176
     1
 90
        2
176
     1
 90
        2
176
     1
 62
     7
176
     1
 62
     7
176
     1
 90
        1
176
     1
 90
        1
176
     1
 40
40.0
176
     1
 90
       11
176
     1
 62
     7
176
     1
 40
1.0
176
     1
 90
        1
176
     1
 90
        6
176
     1
 90
        2
176
     1
 62
     7
176
     1
 90
        6
176
     1
 90
        0
176
     1
 90
        0
176
     1
290
     0
176
     1
 90
        1
176
     1
 40
0.0
176
     1
 90
        0
176
     1
290
     0
176
     1
290
     1
176
     1
290
     1
176
     1
290
     0
176
     1
290
     0
176
     1
290
     0
176
     1
290
     0
176
     1
290
     0
176
     1
290
     0
176
     1
 90
       50
176
     1
 40
0.0
176
     1
 40
1.0
176
     1
 90
        0
176
     1
 62
    18
420
        0
176
     1
 90
       50
176
     1
 90
        3
176
     1
 62
     5
420
      255
176
     1
290
     0
176
     1
 90
       50
176
     1
 90
       50
176
     1
 90
       50
176
     1
290
     0
176
     1
 90
       50
176
     1
 62
   256
176
     0
 40
1.0
176
     0
 90
        2
176
     1
  1
strokes_ogs.tif
176
     1
290
     0
176
     1
 40
1.0
176
     1
 40
1.0
176
     1
  0
VISUALSTYLE
  5
35
102
{ACAD_REACTORS
330
28
102
}
330
28
100
AcDbVisualStyle
  2

 70
    13
177
     3
291
     1
 70
    58
 90
        2
176
     1
 90
        2
176
     1
 90
        0
176
     1
 90
        0
176
     1
 40
0.6
176
     1
 40
30.0
176
     1
 62
     7
176
     1
 90
        1
176
     1
 90
        4
176
     1
 62
     7
176
     1
 62
   257
176
     1
 90
        1
176
     1
 90
        1
176
     1
 40
1.0
176
     1
 90
       12
176
     1
 62
     7
176
     1
 40
1.0
176
     1
 90
        1
176
     1
 90
        6
176
     1
 90
        2
176
     1
 62
     7
176
     1
 90
        5
176
     1
 90
        0
176
     1
 90
        0
176
     1
290
     0
176
     1
 90
        1
176
     1
 40
0.0
176
     1
 90
        0
176
     1
290
     0
176
     1
290
     1
176
     1
290
     1
176
     1
290
     0
176
     1
290
     0
176
     1
290
     0
176
     1
290
     0
176
     1
290
     0
176
     1
290
     0
176
     1
 90
       50
176
     1
 40
0.0
176
     1
 40
1.0
176
     1
 90
        0
176
     1
 62
    18
420
        0
176
     1
 90
       50
176
     1
 90
        3
176
     1
 62
     5
420
      255
176
     1
290
     0
176
     1
 90
       50
176
     1
 90
       50
176
     1
 90
       50
176
     1
290
     0
176
     1
 90
       50
176
     1
 62
   256
176
     0
 40
1.0
176
     0
 90
        2
176
     1
  1
strokes_ogs.tif
176
     1
290
     0
176
     1
 40
1.0
176
     1
 40
1.0
176
     1
1001
ACAD
1000
AcDbSavedByObjectVersion
1070
     0
  0
VISUALSTYLE
  5
4220
102
{ACAD_REACTORS
330
28
102
}
330
28
100
AcDbVisualStyle
  2
Wireframe
 70
     5
177
     3
291
     0
 70
    58
 90
        0
176
     1
 90
        2
176
     1
 90
        0
176
     1
 90
        0
176
     1
 40
0.6
176
     1
 40
30.0
176
     1
 62
     7
420
 16777215
176
     1
 90
        1
176
     1
 90
        4
176
     1
 62
     7
176
     1
 62
   257
176
     1
 90
        1
176
     1
 90
        1
176
     1
 40
1.0
176
     1
 90
        0
176
     1
 62
   257
176
     1
 40
1.0
176
     1
 90
        1
176
     1
 90
        6
176
     1
 90
        2
176
     1
 62
     7
176
     1
 90
        3
176
     1
 90
        0
176
     1
 90
        0
176
     1
290
     0
176
     1
 90
        1
176
     1
 40
0.0
176
     1
 90
        0
176
     1
290
     0
176
     1
290
     1
176
     1
290
     1
176
     1
290
     0
176
     1
290
     0
176
     1
290
     0
176
     1
290
     0
176
     1
290
     0
176
     1
290
     0
176
     1
 90
       50
176
     1
 40
0.0
176
     1
 40
1.0
176
     1
 90
        0
176
     1
 62
    18
420
        0
176
     1
 90
       50
176
     1
 90
        3
176
     1
 62
     5
420
      255
176
     1
290
     0
176
     1
 90
       50
176
     1
 90
       50
176
     1
 90
       50
176
     1
290
     0
176
     1
 90
       50
176
     1
 62
   256
176
     0
 40
1.0
176
     0
 90
        2
176
     1
  1
strokes_ogs.tif
176
     1
290
     0
176
     1
 40
1.0
176
     1
 40
1.0
176
     1
  0
VISUALSTYLE
  5
4224
102
{ACAD_REACTORS
330
28
102
}
330
28
100
AcDbVisualStyle
  2
X-Ray
 70
    25
177
     3
291
     0
 70
    58
 90
        2
176
     1
 90
        2
176
     1
 90
        1
176
     1
 90
        1
176
     1
 40
0.5
176
     1
 40
30.0
176
     1
 62
     7
420
 16777215
176
     1
 90
        1
176
     1
 90
        0
176
     1
 62
     7
176
     1
 62
   257
176
     1
 90
        1
176
     1
 90
        1
176
     1
 40
1.0
176
     1
 90
        8
176
     1
 62
     7
176
     1
 40
1.0
176
     1
 90
        1
176
     1
 90
        6
176
     1
 90
        2
176
     1
 62
     7
176
     1
 90
        3
176
     1
 90
        0
176
     1
 90
        0
176
     1
290
     0
176
     1
 90
       13
176
     1
 40
0.0
176
     1
 90
        0
176
     1
290
     0
176
     1
290
     1
176
     1
290
     1
176
     1
290
     0
176
     1
290
     0
176
     1
290
     0
176
     1
290
     0
176
     1
290
     0
176
     1
290
     0
176
     1
 90
       50
176
     1
 40
0.0
176
     1
 40
1.0
176
     1
 90
        0
176
     1
 62
    18
420
        0
176
     1
 90
       50
176
     1
 90
        3
176
     1
 62
     5
420
      255
176
     1
290
     0
176
     1
 90
       50
176
     1
 90
       50
176
     1
 90
       50
176
     1
290
     0
176
     1
 90
       50
176
     1
 62
   256
176
     0
 40
1.0
176
     0
 90
        2
176
     1
  1
strokes_ogs.tif
176
     1
290
     0
176
     1
 40
1.0
176
     1
 40
1.0
176
     1
  0
DICTIONARYVAR
  5
42E6
102
{ACAD_REACTORS
330
366A
102
}
330
366A
100
DictionaryVariables
280
     0
  1
1:1
  0
DICTIONARYVAR
  5
42E2
102
{ACAD_REACTORS
330
366A
102
}
330
366A
100
DictionaryVariables
280
     0
  1
STANDARD
  0
DICTIONARYVAR
  5
366B
102
{ACAD_REACTORS
330
366A
102
}
330
366A
100
DictionaryVariables
280
     0
  1
STANDARD
  0
DICTIONARYVAR
  5
42E3
102
{ACAD_REACTORS
330
366A
102
}
330
366A
100
DictionaryVariables
280
     0
  1
Imperial24
  0
DICTIONARYVAR
  5
42E4
102
{ACAD_REACTORS
330
366A
102
}
330
366A
100
DictionaryVariables
280
     0
  1
Imperial24
  0
DICTIONARYVAR
  5
41E4
102
{ACAD_REACTORS
330
366A
102
}
330
366A
100
DictionaryVariables
280
     0
  1
2
  0
DICTIONARYVAR
  5
41E3
102
{ACAD_REACTORS
330
366A
102
}
330
366A
100
DictionaryVariables
280
     0
  1
2
  0
DICTIONARYVAR
  5
41E2
102
{ACAD_REACTORS
330
366A
102
}
330
366A
100
DictionaryVariables
280
     0
  1
1
  0
DICTIONARYVAR
  5
41E1
102
{ACAD_REACTORS
330
366A
102
}
330
366A
100
DictionaryVariables
280
     0
  1
0
  0
DICTIONARYVAR
  5
42E8
102
{ACAD_REACTORS
330
366A
102
}
330
366A
100
DictionaryVariables
280
     0
  1
1
  0
DICTIONARYVAR
  5
42E9
102
{ACAD_REACTORS
330
366A
102
}
330
366A
100
DictionaryVariables
280
     0
  1
15
  0
DICTIONARYVAR
  5
42E7
102
{ACAD_REACTORS
330
366A
102
}
330
366A
100
DictionaryVariables
280
     0
  1
0
  0
DICTIONARYVAR
  5
42E5
102
{ACAD_REACTORS
330
366A
102
}
330
366A
100
DictionaryVariables
280
     0
  1
0
  0
DICTIONARYVAR
  5
41E0
102
{ACAD_REACTORS
330
366A
102
}
330
366A
100
DictionaryVariables
280
     0
  1
127
  0
DICTIONARY
  5
42EE
330
4241
100
AcDbDictionary
280
     1
281
     1
  3
ACAD_XREC_ROUNDTRIP
360
42EF
  0
DICTIONARY
  5
41F0
330
3511
100
AcDbDictionary
280
     1
281
     1
  3
ACAD_XREC_ROUNDTRIP
360
41F1
  0
DICTIONARY
  5
41EE
330
3510
100
AcDbDictionary
280
     1
281
     1
  3
ACAD_XREC_ROUNDTRIP
360
41EF
  0
DICTIONARY
  5
41F2
330
3512
100
AcDbDictionary
280
     1
281
     1
  3
ACAD_XREC_ROUNDTRIP
360
41F3
  0
DICTIONARY
  5
42EC
330
423F
100
AcDbDictionary
280
     1
281
     1
  3
ACAD_XREC_ROUNDTRIP
360
42ED
  0
DICTIONARY
  5
42EA
330
3514
100
AcDbDictionary
280
     1
281
     1
  3
ACAD_ROUNDTRIP_2008_TABLESTYLE_CELLSTYLEMAP
360
42EB
  0
XRECORD
  5
42EF
102
{ACAD_REACTORS
330
42EE
102
}
330
42EE
100
AcDbXrecord
280
     1
102
DISPLAYNAME
  1
Imperial24
102
FLAGS
 90
        0
  0
XRECORD
  5
41F1
102
{ACAD_REACTORS
330
41F0
102
}
330
41F0
100
AcDbXrecord
280
     1
102
MATERIAL
148
0.0
149
0.0
149
0.0
 93
        0
 94
       63
282
     0
 72
     1
 77
     1
171
     1
175
     1
179
     1
273
     0
  0
XRECORD
  5
41EF
102
{ACAD_REACTORS
330
41EE
102
}
330
41EE
100
AcDbXrecord
280
     1
102
MATERIAL
148
0.0
149
0.0
149
0.0
 93
        0
 94
       63
282
     0
 72
     1
 77
     1
171
     1
175
     1
179
     1
273
     0
  0
XRECORD
  5
41F3
102
{ACAD_REACTORS
330
41F2
102
}
330
41F2
100
AcDbXrecord
280
     1
102
MATERIAL
148
0.0
149
0.0
149
0.0
 93
        0
 94
       63
282
     0
 72
     1
 77
     1
171
     1
175
     1
179
     1
273
     0
  0
XRECORD
  5
42ED
102
{ACAD_REACTORS
330
42EC
102
}
330
42EC
100
AcDbXrecord
280
     1
102
DISPLAYNAME
  1
Imperial24
102
FLAGS
 90
        0
  0
CELLSTYLEMAP
  5
42EB
102
{ACAD_REACTORS
330
42EA
102
}
330
42EA
100
AcDbCellStyleMap
 90
        3
300
CELLSTYLE
  1
TABLEFORMAT_BEGIN
 90
        5
170
     1
 91
        0
 92
    32768
 62
   257
 93
        1
300
CONTENTFORMAT
  1
CONTENTFORMAT_BEGIN
 90
        0
 91
        0
 92
      512
 93
        0
300

 40
0.0
140
1.0
 94
        5
 62
     0
340
11
144
0.25
309
CONTENTFORMAT_END
171
     0
 94
        6
 95
        1
302
GRIDFORMAT
  1
GRIDFORMAT_BEGIN
 90
        0
 91
        1
 62
     0
 92
       -2
340
0
 93
        0
 40
0.045
309
GRIDFORMAT_END
 95
        2
302
GRIDFORMAT
  1
GRIDFORMAT_BEGIN
 90
        0
 91
        1
 62
     0
 92
       -2
340
0
 93
        0
 40
0.045
309
GRIDFORMAT_END
 95
        4
302
GRIDFORMAT
  1
GRIDFORMAT_BEGIN
 90
        0
 91
        1
 62
     0
 92
       -2
340
0
 93
        0
 40
0.045
309
GRIDFORMAT_END
 95
        8
302
GRIDFORMAT
  1
GRIDFORMAT_BEGIN
 90
        0
 91
        1
 62
     0
 92
       -2
340
0
 93
        0
 40
0.045
309
GRIDFORMAT_END
 95
       16
302
GRIDFORMAT
  1
GRIDFORMAT_BEGIN
 90
        0
 91
        1
 62
     0
 92
       -2
340
0
 93
        0
 40
0.045
309
GRIDFORMAT_END
 95
       32
302
GRIDFORMAT
  1
GRIDFORMAT_BEGIN
 90
        0
 91
        1
 62
     0
 92
       -2
340
0
 93
        0
 40
0.045
309
GRIDFORMAT_END
309
TABLEFORMAT_END
  1
CELLSTYLE_BEGIN
 90
        1
 91
        1
300
_TITLE
309
CELLSTYLE_END
300
CELLSTYLE
  1
TABLEFORMAT_BEGIN
 90
        5
170
     1
 91
        0
 92
        0
 62
   257
 93
        1
300
CONTENTFORMAT
  1
CONTENTFORMAT_BEGIN
 90
        0
 91
        0
 92
      512
 93
        0
300

 40
0.0
140
1.0
 94
        5
 62
     0
340
11
144
0.18
309
CONTENTFORMAT_END
171
     0
 94
        6
 95
        1
302
GRIDFORMAT
  1
GRIDFORMAT_BEGIN
 90
        0
 91
        1
 62
     0
 92
       -2
340
0
 93
        0
 40
0.045
309
GRIDFORMAT_END
 95
        2
302
GRIDFORMAT
  1
GRIDFORMAT_BEGIN
 90
        0
 91
        1
 62
     0
 92
       -2
340
0
 93
        0
 40
0.045
309
GRIDFORMAT_END
 95
        4
302
GRIDFORMAT
  1
GRIDFORMAT_BEGIN
 90
        0
 91
        1
 62
     0
 92
       -2
340
0
 93
        0
 40
0.045
309
GRIDFORMAT_END
 95
        8
302
GRIDFORMAT
  1
GRIDFORMAT_BEGIN
 90
        0
 91
        1
 62
     0
 92
       -2
340
0
 93
        0
 40
0.045
309
GRIDFORMAT_END
 95
       16
302
GRIDFORMAT
  1
GRIDFORMAT_BEGIN
 90
        0
 91
        1
 62
     0
 92
       -2
340
0
 93
        0
 40
0.045
309
GRIDFORMAT_END
 95
       32
302
GRIDFORMAT
  1
GRIDFORMAT_BEGIN
 90
        0
 91
        1
 62
     0
 92
       -2
340
0
 93
        0
 40
0.045
309
GRIDFORMAT_END
309
TABLEFORMAT_END
  1
CELLSTYLE_BEGIN
 90
        2
 91
        1
300
_HEADER
309
CELLSTYLE_END
300
CELLSTYLE
  1
TABLEFORMAT_BEGIN
 90
        5
170
     1
 91
        0
 92
        0
 62
   257
 93
        1
300
CONTENTFORMAT
  1
CONTENTFORMAT_BEGIN
 90
        0
 91
        0
 92
      512
 93
        0
300

 40
0.0
140
1.0
 94
        2
 62
     0
340
11
144
0.18
309
CONTENTFORMAT_END
171
     0
 94
        6
 95
        1
302
GRIDFORMAT
  1
GRIDFORMAT_BEGIN
 90
        0
 91
        1
 62
     0
 92
       -2
340
0
 93
        0
 40
0.045
309
GRIDFORMAT_END
 95
        2
302
GRIDFORMAT
  1
GRIDFORMAT_BEGIN
 90
        0
 91
        1
 62
     0
 92
       -2
340
0
 93
        0
 40
0.045
309
GRIDFORMAT_END
 95
        4
302
GRIDFORMAT
  1
GRIDFORMAT_BEGIN
 90
        0
 91
        1
 62
     0
 92
       -2
340
0
 93
        0
 40
0.045
309
GRIDFORMAT_END
 95
        8
302
GRIDFORMAT
  1
GRIDFORMAT_BEGIN
 90
        0
 91
        1
 62
     0
 92
       -2
340
0
 93
        0
 40
0.045
309
GRIDFORMAT_END
 95
       16
302
GRIDFORMAT
  1
GRIDFORMAT_BEGIN
 90
        0
 91
        1
 62
     0
 92
       -2
340
0
 93
        0
 40
0.045
309
GRIDFORMAT_END
 95
       32
302
GRIDFORMAT
  1
GRIDFORMAT_BEGIN
 90
        0
 91
        1
 62
     0
 92
       -2
340
0
 93
        0
 40
0.045
309
GRIDFORMAT_END
309
TABLEFORMAT_END
  1
CELLSTYLE_BEGIN
 90
        3
 91
        2
300
_DATA
309
CELLSTYLE_END
  0
ENDSEC
  0
EOF
